[NSBC] Gisou Furin E06 [WEBDL] [1080p]

Category:
Date:
2019-08-14 14:37 UTC
Submitter:
Seeders:
19
Information:
TlNCQy50bw==
Leechers:
5
File size:
1.0 GiB
Completed:
560
Info hash:
f3046dde171a9a96d973c7af510f6770cbad8b72
![Poster](http://img.topddl.net/images/ceafd99903045afdcbd8fb92b240aaff.jpg "") ![Thumbnails](http://img.topddl.net/images/4498de403816cd09e51c0477022ccaa0.png "") ``` General Unique ID : 95720585756445078394036190128098877718 (0x48031D3ED98EDB1A341561CE835DA116) Complete name : [NSBC] Gisou Furin E06 [WEBDL] [1080p].mkv Format : Matroska Format version : Version 4 File size : 1.02 GiB Duration : 50 min 54 s Overall bit rate : 2 855 kb/s Movie name : [NSBC] Gisou Furin E06 [WEBDL] [1080p] Encoded by : NoNe | NSBC Encoded date : UTC 2019-08-14 14:34:07 Writing application : mkvmerge v36.0.0 ('Is That Jazz?') 64-bit Writing library : libebml v1.3.9 + libmatroska v1.5.2 Copyright : NSBC Comment : NoNe | NSBC DATE_RECORDED : 2019 Video ID : 1 Format : AVC Format/Info : Advanced Video Codec Format profile : High@L4 Format settings : CABAC / 4 Ref Frames Format settings, CABAC : Yes Format settings, Reference frames : 4 frames Codec ID : V_MPEG4/ISO/AVC Duration : 50 min 53 s Bit rate : 2 789 kb/s Width : 1 920 pixels Height : 1 080 pixels Display aspect ratio : 16:9 Frame rate mode : Constant Frame rate : 29.970 (30000/1001) FPS Color space : YUV Chroma subsampling : 4:2:0 Bit depth : 8 bits Scan type : Progressive Bits/(Pixel*Frame) : 0.045 Stream size : 1 015 MiB (98%) Title : [NSBC] Writing library : Zencoder Video Encoding System Default : Yes Forced : No Audio ID : 2 Format : AAC LC Format/Info : Advanced Audio Codec Low Complexity Codec ID : A_AAC-2 Duration : 50 min 54 s Bit rate : 64.0 kb/s Channel(s) : 2 channels Channel layout : L R Sampling rate : 48.0 kHz Frame rate : 46.875 FPS (1024 SPF) Compression mode : Lossy Delay relative to video : -67 ms Stream size : 23.3 MiB (2%) Title : [NSBC] Language : Japanese Default : Yes Forced : No ```

File list

  • [NSBC] Gisou Furin E06 [WEBDL] [1080p].mkv (1.0 GiB)