[NSBC] Keiji 7-nin Season 5 E05 [WEBDL] [1080p]

Category:
Date:
2019-08-14 13:36 UTC
Submitter:
Seeders:
1
Information:
TlNCQy50bw==
Leechers:
1
File size:
886.3 MiB
Completed:
758
Info hash:
7e517c367bf64fd9246b9ffdb13aae44a127bd32
![Poster](http://img.topddl.net/images/61af0e0dce728ebc52739711d1aa6e40.jpg "") ![Thumbnails](http://img.topddl.net/images/2a2d6ee05af2ebc16e1a8c7342d3cdd0.png "") ``` General Unique ID : 267108592236434226373259818811144013925 (0xC8F33E5DD2B68E4710B5CAE348280865) Complete name : [NSBC] Keiji 7-nin Season 5 E05 [WEBDL] [1080p].mkv Format : Matroska Format version : Version 4 File size : 886 MiB Duration : 44 min 58 s Overall bit rate : 2 756 kb/s Movie name : [NSBC] Keiji 7-nin Season 5 E05 [WEBDL] [1080p] Encoded by : NoNe | NSBC Encoded date : UTC 2019-08-14 13:30:57 Writing application : mkvmerge v36.0.0 ('Is That Jazz?') 64-bit Writing library : libebml v1.3.9 + libmatroska v1.5.2 Copyright : NSBC Comment : NoNe | NSBC DATE_RECORDED : 2019 Video ID : 1 Format : AVC Format/Info : Advanced Video Codec Format profile : High@L4 Format settings : CABAC / 4 Ref Frames Format settings, CABAC : Yes Format settings, Reference frames : 4 frames Codec ID : V_MPEG4/ISO/AVC Duration : 44 min 57 s Bit rate : 2 689 kb/s Width : 1 920 pixels Height : 1 080 pixels Display aspect ratio : 16:9 Frame rate mode : Constant Frame rate : 29.970 (30000/1001) FPS Color space : YUV Chroma subsampling : 4:2:0 Bit depth : 8 bits Scan type : Progressive Bits/(Pixel*Frame) : 0.043 Stream size : 865 MiB (98%) Title : [NSBC] Writing library : Zencoder Video Encoding System Default : Yes Forced : No Color range : Limited Matrix coefficients : BT.709 Audio ID : 2 Format : AAC LC Format/Info : Advanced Audio Codec Low Complexity Codec ID : A_AAC-2 Duration : 44 min 58 s Bit rate : 63.9 kb/s Channel(s) : 2 channels Channel layout : L R Sampling rate : 48.0 kHz Frame rate : 46.875 FPS (1024 SPF) Compression mode : Lossy Delay relative to video : -67 ms Stream size : 20.6 MiB (2%) Title : [NSBC] Language : Japanese Default : Yes Forced : No ```

File list

  • [NSBC] Keiji 7-nin Season 5 E05 [WEBDL] [1080p].mkv (886.3 MiB)