[NSBC] TWO WEEKS E05 [WEBDL] [1080p]

Category:
Date:
2019-08-13 13:26 UTC
Submitter:
Seeders:
12
Information:
TlNCQy50bw==
Leechers:
1
File size:
849.0 MiB
Completed:
644
Info hash:
00736552a29934f869f351abdcbb3709cac8af0f
![Posters](http://img.topddl.net/images/fdee882c3e163e0916976d0e06e2dba0.jpg "") ![Thumbnails](http://img.topddl.net/images/cf9b57ccca4d873b844be579d6a98d6d.png "") ``` General Unique ID : 271448733002591689169107804350361058703 (0xCC371FD3CCE30D7D3CEA51DBB5273D8F) Complete name : [NSBC] TWO WEEKS E05 [WEBDL] [1080p].mkv Format : Matroska Format version : Version 4 File size : 849 MiB Duration : 45 min 51 s Overall bit rate : 2 589 kb/s Movie name : [NSBC] TWO WEEKS E05 [WEBDL] [1080p] Encoded by : NoNe | NSBC Encoded date : UTC 2019-08-13 13:22:34 Writing application : mkvmerge v36.0.0 ('Is That Jazz?') 64-bit Writing library : libebml v1.3.9 + libmatroska v1.5.2 Copyright : NSBC Comment : NoNe | NSBC DATE_RECORDED : 2019 Video ID : 1 Format : AVC Format/Info : Advanced Video Codec Format profile : High@L4 Format settings : CABAC / 4 Ref Frames Format settings, CABAC : Yes Format settings, Reference frames : 4 frames Codec ID : V_MPEG4/ISO/AVC Duration : 45 min 51 s Bit rate : 2 458 kb/s Width : 1 920 pixels Height : 1 080 pixels Display aspect ratio : 16:9 Frame rate mode : Constant Frame rate : 29.970 (30000/1001) FPS Color space : YUV Chroma subsampling : 4:2:0 Bit depth : 8 bits Scan type : Progressive Bits/(Pixel*Frame) : 0.040 Stream size : 806 MiB (95%) Title : [NSBC] Writing library : Zencoder Video Encoding System Default : Yes Forced : No Color range : Limited Color primaries : BT.709 Transfer characteristics : BT.709 Matrix coefficients : BT.709 Audio ID : 2 Format : AAC LC Format/Info : Advanced Audio Codec Low Complexity Codec ID : A_AAC-2 Duration : 45 min 51 s Bit rate : 128 kb/s Channel(s) : 2 channels Channel layout : L R Sampling rate : 48.0 kHz Frame rate : 46.875 FPS (1024 SPF) Compression mode : Lossy Delay relative to video : -67 ms Stream size : 41.9 MiB (5%) Title : [NSBC] Language : Japanese Default : Yes Forced : No ```

File list

  • [NSBC] TWO WEEKS E05 [WEBDL] [1080p].mkv (849.0 MiB)