[NSBC] Koi Yori Suki Ja, Dame Desu ka? SP E10 [WEBDL] [1080p]

Category:
Date:
2019-08-13 11:27 UTC
Submitter:
Seeders:
6
Information:
TlNCQy50bw==
Leechers:
1
File size:
321.7 MiB
Completed:
282
Info hash:
5e8fc4632411f778b9ae2facb9e60ef2ee744bb9
> ### More info [Here](https://mydramalist.info/title/50805/koi_yori_suki_ja%2C_dame_desu_ka%3F) ![Poster](http://img.topddl.net/images/3c004413649619f9d0765c1408710579.png "") ![Thumbnails](http://img.topddl.net/images/4812f65140fd6bd879662a265965d31a.png "") ``` General Unique ID : 134851411190198701123569809223642507206 (0x65736FE4D44CC5BABCE3864DCC1FE7C6) Complete name : [NSBC] Koi Yori Suki Ja, Dame Desu ka? SP E10 [WEBDL] [1080p].mkv Format : Matroska Format version : Version 4 File size : 322 MiB Duration : 12 min 39 s Overall bit rate : 3 555 kb/s Movie name : [NSBC] Koi Yori Suki Ja, Dame Desu ka? SP E10 [WEBDL] [1080p] Encoded by : NoNe | NSBC Encoded date : UTC 2019-08-13 11:22:29 Writing application : mkvmerge v36.0.0 ('Is That Jazz?') 64-bit Writing library : libebml v1.3.9 + libmatroska v1.5.2 Copyright : NSBC Comment : NoNe | NSBC DATE_RECORDED : 2019 Video ID : 1 Format : AVC Format/Info : Advanced Video Codec Format profile : High@L4 Format settings : CABAC / 4 Ref Frames Format settings, CABAC : Yes Format settings, Reference frames : 4 frames Codec ID : V_MPEG4/ISO/AVC Duration : 12 min 39 s Bit rate : 3 489 kb/s Width : 1 920 pixels Height : 1 080 pixels Display aspect ratio : 16:9 Frame rate mode : Constant Frame rate : 29.970 (30000/1001) FPS Color space : YUV Chroma subsampling : 4:2:0 Bit depth : 8 bits Scan type : Progressive Bits/(Pixel*Frame) : 0.056 Stream size : 316 MiB (98%) Title : [NSBC] Writing library : Zencoder Video Encoding System Default : Yes Forced : No Audio ID : 2 Format : AAC LC Format/Info : Advanced Audio Codec Low Complexity Codec ID : A_AAC-2 Duration : 12 min 39 s Bit rate : 63.9 kb/s Channel(s) : 2 channels Channel layout : L R Sampling rate : 48.0 kHz Frame rate : 46.875 FPS (1024 SPF) Compression mode : Lossy Delay relative to video : -67 ms Stream size : 5.78 MiB (2%) Title : [NSBC] Language : Japanese Default : Yes Forced : No ```

File list

  • [NSBC] Koi Yori Suki Ja, Dame Desu ka? SP E10 [WEBDL] [1080p].mkv (321.7 MiB)