[NSBC] Legal Heart E04 [WEBDL] [720p]

Category:
Date:
2019-08-13 01:34 UTC
Submitter:
Seeders:
6
Information:
TlNCQy50bw==
Leechers:
3
File size:
1005.1 MiB
Completed:
506
Info hash:
cdfe378fa0bd39322aa5e67f54adfc2917e2dbc5
![POSTER](http://img.topddl.net/images/94d386066c357a3c8394582d11dd83ad.jpg "") ![Thumbnails](http://img.topddl.net/images/01a61434a79b9d5529848e6c705ac247.png "") ``` General Unique ID : 159089166774343116090921496805514616957 (0x77AF7581CCA7EAAA86A7CB1FBB03207D) Complete name : [NSBC] Legal Heart E04 [WEBDL] [720p].mkv Format : Matroska Format version : Version 4 File size : 1 005 MiB Duration : 45 min 1 s Overall bit rate : 3 121 kb/s Movie name : [NSBC] Legal Heart E04 [WEBDL] [720p] Encoded by : NoNe | NSBC Encoded date : UTC 2019-08-13 01:29:56 Writing application : mkvmerge v35.0.0 ('All The Love In The World') 64-bit Writing library : libebml v1.3.9 + libmatroska v1.5.2 Copyright : NSBC Comment : NoNe | NSBC DATE_RECORDED : 2019 Video ID : 1 Format : AVC Format/Info : Advanced Video Codec Format profile : Main@L3.1 Format settings : CABAC / 3 Ref Frames Format settings, CABAC : Yes Format settings, Reference frames : 3 frames Format settings, GOP : M=1, N=30 Codec ID : V_MPEG4/ISO/AVC Duration : 45 min 0 s Bit rate : 2 991 kb/s Width : 1 280 pixels Height : 720 pixels Display aspect ratio : 16:9 Frame rate mode : Constant Frame rate : 29.970 (30000/1001) FPS Color space : YUV Chroma subsampling : 4:2:0 Bit depth : 8 bits Scan type : Progressive Bits/(Pixel*Frame) : 0.108 Stream size : 963 MiB (96%) Title : [NSBC] Writing library : Zencoder Video Encoding System Default : Yes Forced : No Audio ID : 2 Format : AAC LC Format/Info : Advanced Audio Codec Low Complexity Codec ID : A_AAC-2 Duration : 45 min 1 s Bit rate : 128 kb/s Channel(s) : 2 channels Channel layout : L R Sampling rate : 48.0 kHz Frame rate : 46.875 FPS (1024 SPF) Compression mode : Lossy Stream size : 41.2 MiB (4%) Title : [NSBC] Language : Japanese Default : Yes Forced : No ```

File list

  • [NSBC] Legal Heart E04 [WEBDL] [720p].mkv (1005.1 MiB)