[NSBC] Sadou E04 [WEBDL] [720p]

Category:
Date:
2019-08-13 00:07 UTC
Submitter:
Seeders:
5
Information:
TlNCQy50bw==
Leechers:
1
File size:
543.6 MiB
Completed:
334
Info hash:
29c44e01d62d9e88dad3532ce3305e0ec830dbf2
![POSTER](http://img.topddl.net/images/f16f3ca93b8296a2be0a4c2d77b2f224.jpg "") ![Thumbnails](http://img.topddl.net/images/a8919d0f5cf25870806c6129ad61f0e6.png "") ``` General Unique ID : 138391749399702765706814274536472521296 (0x681D480B4E1B3BD6DDF0B9EEABFF2A50) Complete name : [NSBC] Sadou E04 [WEBDL] [720p].mkv Format : Matroska Format version : Version 4 File size : 544 MiB Duration : 24 min 19 s Overall bit rate : 3 125 kb/s Movie name : [NSBC] Sadou E04 [WEBDL] [720p] Encoded by : NoNe | NSBC Encoded date : UTC 2019-08-13 00:01:54 Writing application : mkvmerge v35.0.0 ('All The Love In The World') 64-bit Writing library : libebml v1.3.9 + libmatroska v1.5.2 Copyright : NSBC Comment : NoNe | NSBC DATE_RECORDED : 2019 Video ID : 1 Format : AVC Format/Info : Advanced Video Codec Format profile : Main@L3.1 Format settings : CABAC / 3 Ref Frames Format settings, CABAC : Yes Format settings, Reference frames : 3 frames Format settings, GOP : M=1, N=30 Codec ID : V_MPEG4/ISO/AVC Duration : 24 min 19 s Bit rate : 2 995 kb/s Width : 1 280 pixels Height : 720 pixels Display aspect ratio : 16:9 Frame rate mode : Constant Frame rate : 29.970 (30000/1001) FPS Color space : YUV Chroma subsampling : 4:2:0 Bit depth : 8 bits Scan type : Progressive Bits/(Pixel*Frame) : 0.108 Stream size : 521 MiB (96%) Title : [NSBC] Writing library : Zencoder Video Encoding System Default : Yes Forced : No Audio ID : 2 Format : AAC LC Format/Info : Advanced Audio Codec Low Complexity Codec ID : A_AAC-2 Duration : 24 min 19 s Bit rate : 128 kb/s Channel(s) : 2 channels Channel layout : L R Sampling rate : 48.0 kHz Frame rate : 46.875 FPS (1024 SPF) Compression mode : Lossy Stream size : 22.2 MiB (4%) Title : [NSBC] Language : Japanese Default : Yes Forced : No ```

File list

  • [NSBC] Sadou E04 [WEBDL] [720p].mkv (543.6 MiB)