[NSBC] Kansatsui Asagao E05 [WEBDL] [720p]

Category:
Date:
2019-08-12 23:34 UTC
Submitter:
Seeders:
22
Information:
TlNCQy50bw==
Leechers:
11
File size:
705.5 MiB
Completed:
716
Info hash:
06a75ea334ab2f4fffb45f9a31198bc18774a7d7
![POSTER](http://img.topddl.net/images/03d2e2b22c04b33dd556ba8888eb9f1b.jpg "") ![Thumbnails](http://img.topddl.net/images/c91639cf2eb8a6c3a177d7de302f5a84.png "") ``` General Unique ID : 175717656215626672364889427249324742112 (0x8431FD55877866D342EFFFA9E1BDD5E0) Complete name : [NSBC] Kansatsui Asagao E05 [WEBDL] [720p].mkv Format : Matroska Format version : Version 4 File size : 706 MiB Duration : 46 min 20 s Overall bit rate mode : Variable Overall bit rate : 2 129 kb/s Movie name : [NSBC] Kansatsui Asagao E05 [WEBDL] [720p] Encoded by : NoNe | NSBC Encoded date : UTC 2019-08-12 23:23:07 Writing application : mkvmerge v35.0.0 ('All The Love In The World') 64-bit Writing library : libebml v1.3.9 + libmatroska v1.5.2 Copyright : NSBC Comment : NoNe | NSBC DATE_RECORDED : 2019 Video ID : 1 Format : AVC Format/Info : Advanced Video Codec Format profile : High@L4.1 Format settings : CABAC / 4 Ref Frames Format settings, CABAC : Yes Format settings, Reference frames : 4 frames Codec ID : V_MPEG4/ISO/AVC Duration : 46 min 19 s Bit rate mode : Variable Bit rate : 1 998 kb/s Maximum bit rate : 6 000 kb/s Width : 1 280 pixels Height : 720 pixels Display aspect ratio : 16:9 Frame rate mode : Constant Frame rate : 29.970 (30000/1001) FPS Color space : YUV Chroma subsampling : 4:2:0 Bit depth : 8 bits Scan type : Progressive Bits/(Pixel*Frame) : 0.072 Stream size : 662 MiB (94%) Title : [NSBC] Default : Yes Forced : No Color range : Limited Color primaries : BT.709 Transfer characteristics : BT.709 Matrix coefficients : BT.709 Audio ID : 2 Format : AAC LC Format/Info : Advanced Audio Codec Low Complexity Codec ID : A_AAC-2 Duration : 46 min 19 s Bit rate : 128 kb/s Channel(s) : 2 channels Channel layout : L R Sampling rate : 48.0 kHz Frame rate : 46.875 FPS (1024 SPF) Compression mode : Lossy Delay relative to video : -67 ms Stream size : 42.4 MiB (6%) Title : [NSBC] Language : Japanese Default : Yes Forced : No ```

File list

  • [NSBC] Kansatsui Asagao E05 [WEBDL] [720p].mkv (705.5 MiB)

NOSoba (uploader)

User
really feel for this eps :(