[NSBC] Itsuka, Nemuri ni Tsuku Hi E05 [WEBDL] [720p]

Category:
Date:
2019-08-12 23:34 UTC
Submitter:
Seeders:
6
Information:
TlNCQy50bw==
Leechers:
3
File size:
335.3 MiB
Completed:
365
Info hash:
8d6ac0bd87f8661e908a55fc6ec1489551ed707d
![Poster](http://img.topddl.net/images/912acdff8f8400233d2dcd82f3376672.jpg "") ![Thumbnails](http://img.topddl.net/images/7a8643fbe0a4a1afde3d6ee16716f601.png "") ``` General Unique ID : 22247738302198480579879548911888524983 (0x10BCC22F9E7BFEBE9BA5FB5F00DE66B7) Complete name : [NSBC] Itsuka, Nemuri ni Tsuku Hi E05 [WEBDL] [720p].mkv Format : Matroska Format version : Version 4 File size : 335 MiB Duration : 22 min 1 s Overall bit rate mode : Variable Overall bit rate : 2 129 kb/s Movie name : [NSBC] Itsuka, Nemuri ni Tsuku Hi E05 [WEBDL] [720p] Encoded by : NoNe | NSBC Encoded date : UTC 2019-08-12 23:22:20 Writing application : mkvmerge v35.0.0 ('All The Love In The World') 64-bit Writing library : libebml v1.3.9 + libmatroska v1.5.2 Copyright : NSBC Comment : NoNe | NSBC DATE_RECORDED : 2019 Video ID : 1 Format : AVC Format/Info : Advanced Video Codec Format profile : High@L4.1 Format settings : CABAC / 4 Ref Frames Format settings, CABAC : Yes Format settings, Reference frames : 4 frames Codec ID : V_MPEG4/ISO/AVC Duration : 22 min 0 s Bit rate mode : Variable Bit rate : 1 999 kb/s Maximum bit rate : 6 000 kb/s Width : 1 280 pixels Height : 720 pixels Display aspect ratio : 16:9 Frame rate mode : Constant Frame rate : 29.970 (30000/1001) FPS Color space : YUV Chroma subsampling : 4:2:0 Bit depth : 8 bits Scan type : Progressive Bits/(Pixel*Frame) : 0.072 Stream size : 315 MiB (94%) Title : [NSBC] Default : Yes Forced : No Color range : Limited Color primaries : BT.709 Transfer characteristics : BT.709 Matrix coefficients : BT.709 Audio ID : 2 Format : AAC LC Format/Info : Advanced Audio Codec Low Complexity Codec ID : A_AAC-2 Duration : 22 min 0 s Bit rate : 128 kb/s Channel(s) : 2 channels Channel layout : L R Sampling rate : 48.0 kHz Frame rate : 46.875 FPS (1024 SPF) Compression mode : Lossy Delay relative to video : -67 ms Stream size : 20.2 MiB (6%) Title : [NSBC] Language : Japanese Default : Yes Forced : No ```

File list

  • [NSBC] Itsuka, Nemuri ni Tsuku Hi E05 [WEBDL] [720p].mkv (335.3 MiB)