[NSBC] Boku wa Mada Kimi wo Aisanai Koto ga Dekiru E05 [WEBDL] [720p]

Category:
Date:
2019-08-12 23:34 UTC
Submitter:
Seeders:
5
Information:
TlNCQy50bw==
Leechers:
4
File size:
747.6 MiB
Completed:
377
Info hash:
7e2c13ae440f6bf33f176806a4d088479558f4dc
![Poster](http://img.topddl.net/images/9bd6d7f0ac73dde891e6a8c70fcb1e17.jpg "") ![Thumbnails](http://img.topddl.net/images/23dbfb3eff86bac6d7023ca1451a9f6b.png "") ``` General Unique ID : 101508617546104623259420467425650809300 (0x4C5DD93ECD6DD5D149091E5CF31619D4) Complete name : [NSBC] Boku wa Mada Kimi wo Aisanai Koto ga Dekiru E05 [WEBDL] [720p].mkv Format : Matroska Format version : Version 4 File size : 748 MiB Duration : 49 min 3 s Overall bit rate mode : Variable Overall bit rate : 2 131 kb/s Movie name : [NSBC] Boku wa Mada Kimi wo Aisanai Koto ga Dekiru E05 [WEBDL] [720p] Encoded by : NoNe | NSBC Encoded date : UTC 2019-08-12 23:26:33 Writing application : mkvmerge v35.0.0 ('All The Love In The World') 64-bit Writing library : libebml v1.3.9 + libmatroska v1.5.2 Copyright : NSBC Comment : NoNe | NSBC DATE_RECORDED : 2019 Video ID : 1 Format : AVC Format/Info : Advanced Video Codec Format profile : High@L4.1 Format settings : CABAC / 4 Ref Frames Format settings, CABAC : Yes Format settings, Reference frames : 4 frames Codec ID : V_MPEG4/ISO/AVC Duration : 49 min 2 s Bit rate mode : Variable Bit rate : 2 000 kb/s Maximum bit rate : 6 000 kb/s Width : 1 280 pixels Height : 720 pixels Display aspect ratio : 16:9 Frame rate mode : Constant Frame rate : 29.970 (30000/1001) FPS Color space : YUV Chroma subsampling : 4:2:0 Bit depth : 8 bits Scan type : Progressive Bits/(Pixel*Frame) : 0.072 Stream size : 702 MiB (94%) Title : [NSBC] Default : Yes Forced : No Color range : Limited Color primaries : BT.709 Transfer characteristics : BT.709 Matrix coefficients : BT.709 Audio ID : 2 Format : AAC LC Format/Info : Advanced Audio Codec Low Complexity Codec ID : A_AAC-2 Duration : 49 min 2 s Bit rate : 128 kb/s Channel(s) : 2 channels Channel layout : L R Sampling rate : 48.0 kHz Frame rate : 46.875 FPS (1024 SPF) Compression mode : Lossy Delay relative to video : -67 ms Stream size : 44.9 MiB (6%) Title : [NSBC] Language : Japanese Default : Yes Forced : No ```

File list

  • [NSBC] Boku wa Mada Kimi wo Aisanai Koto ga Dekiru E05 [WEBDL] [720p].mkv (747.6 MiB)