[NSBC] No Side Game E05 [WEBDL] [1080p]

Category:
Date:
2019-08-12 00:51 UTC
Submitter:
Seeders:
12
Information:
TlNCQy50bw==
Leechers:
7
File size:
1.2 GiB
Completed:
955
Info hash:
022887ae6d231c7d7c97a2a9fbd3746033f2c2e0
![POSTER](http://img.topddl.net/images/9fd2f315e6d6b74aa5cdb4d35736d8d6.jpg "") ![Thumbnails](http://img.topddl.net/images/c0451b254b8a52192e5bda19133f5510.png "") ``` General Unique ID : 228627471789880505592246226046916330292 (0xAC000CA5AC436941AC721A5A75C58334) Complete name : [NSBC] No Side Game E05 [WEBDL] [1080p].mkv Format : Matroska Format version : Version 4 File size : 1.16 GiB Duration : 46 min 42 s Overall bit rate : 3 556 kb/s Movie name : [NSBC] No Side Game E05 [WEBDL] [1080p] Encoded by : NoNe | NSBC Encoded date : UTC 2019-08-12 00:00:05 Writing application : mkvmerge v35.0.0 ('All The Love In The World') 64-bit Writing library : libebml v1.3.9 + libmatroska v1.5.2 Copyright : NSBC Comment : NoNe | NSBC DATE_RECORDED : 2019 Video ID : 1 Format : AVC Format/Info : Advanced Video Codec Format profile : High@L4 Format settings : CABAC / 4 Ref Frames Format settings, CABAC : Yes Format settings, Reference frames : 4 frames Codec ID : V_MPEG4/ISO/AVC Duration : 46 min 41 s Bit rate : 3 489 kb/s Width : 1 920 pixels Height : 1 080 pixels Display aspect ratio : 16:9 Frame rate mode : Constant Frame rate : 29.970 (30000/1001) FPS Color space : YUV Chroma subsampling : 4:2:0 Bit depth : 8 bits Scan type : Progressive Bits/(Pixel*Frame) : 0.056 Stream size : 1.14 GiB (98%) Title : [NSBC] Writing library : Zencoder Video Encoding System Default : Yes Forced : No Color range : Limited Color primaries : BT.709 Transfer characteristics : BT.709 Matrix coefficients : BT.709 Audio ID : 2 Format : AAC LC Format/Info : Advanced Audio Codec Low Complexity Codec ID : A_AAC-2 Duration : 46 min 42 s Bit rate : 64.0 kb/s Channel(s) : 2 channels Channel layout : L R Sampling rate : 48.0 kHz Frame rate : 46.875 FPS (1024 SPF) Compression mode : Lossy Delay relative to video : -67 ms Stream size : 21.4 MiB (2%) Title : [NSBC] Language : Japanese Default : Yes Forced : No ```

File list

  • [NSBC] No Side Game E05 [WEBDL] [1080p].mkv (1.2 GiB)