[NSBC] Runway 24 E04 [WEBDL] [1080p]

Category:
Date:
2019-08-12 00:20 UTC
Submitter:
Seeders:
5
Information:
TlNCQy50bw==
Leechers:
2
File size:
510.8 MiB
Completed:
363
Info hash:
14c2fb97b345563caa57e26b93fea237f7c97dc5
![POSTER](http://img.topddl.net/images/651a7d25c0fe83fee811926db6ef7052.jpg "") ![Thumbnails](http://img.topddl.net/images/8b9c255885ed6c55ce92d3b168277b66.png "") ``` General Unique ID : 5126505281397443309608332381072503228 (0x3DB54398CEAAB2DD48C4406B6C5B1BC) Complete name : [NSBC] Runway 24 E04 [WEBDL] [1080p].mkv Format : Matroska Format version : Version 4 File size : 511 MiB Duration : 23 min 26 s Overall bit rate : 3 047 kb/s Movie name : [NSBC] Runway 24 E04 [WEBDL] [1080p] Encoded by : NoNe | NSBC Encoded date : UTC 2019-08-12 00:03:14 Writing application : mkvmerge v35.0.0 ('All The Love In The World') 64-bit Writing library : libebml v1.3.9 + libmatroska v1.5.2 Copyright : NSBC Comment : NoNe | NSBC DATE_RECORDED : 2019 Video ID : 1 Format : AVC Format/Info : Advanced Video Codec Format profile : High@L4 Format settings : CABAC / 4 Ref Frames Format settings, CABAC : Yes Format settings, Reference frames : 4 frames Codec ID : V_MPEG4/ISO/AVC Duration : 23 min 26 s Bit rate : 2 981 kb/s Width : 1 920 pixels Height : 1 080 pixels Display aspect ratio : 16:9 Frame rate mode : Constant Frame rate : 29.970 (30000/1001) FPS Color space : YUV Chroma subsampling : 4:2:0 Bit depth : 8 bits Scan type : Progressive Bits/(Pixel*Frame) : 0.048 Stream size : 500 MiB (98%) Title : [NSBC] Writing library : Zencoder Video Encoding System Default : Yes Forced : No Color range : Limited Color primaries : BT.709 Transfer characteristics : BT.709 Matrix coefficients : BT.709 Audio ID : 2 Format : AAC LC Format/Info : Advanced Audio Codec Low Complexity Codec ID : A_AAC-2 Duration : 23 min 26 s Bit rate : 63.9 kb/s Channel(s) : 2 channels Channel layout : L R Sampling rate : 48.0 kHz Frame rate : 46.875 FPS (1024 SPF) Compression mode : Lossy Delay relative to video : -67 ms Stream size : 10.7 MiB (2%) Title : [NSBC] Language : Japanese Default : Yes Forced : No ```

File list

  • [NSBC] Runway 24 E04 [WEBDL] [1080p].mkv (510.8 MiB)