[NSBC] Anata no Ban Desu -CounterAttack- E16 [WEBDL] [1080p]

Category:
Date:
2019-08-12 00:20 UTC
Submitter:
Seeders:
30
Information:
TlNCQy50bw==
Leechers:
3
File size:
1009.9 MiB
Completed:
1219
Info hash:
65a4724109e9f3a594acb15a44fa77e86254250c
> if you found any error, let me know by telling in comments.. ![POSTER](http://img.topddl.net/images/c17a80350db4fa01c7aeadd50f0752a2.jpg "") ![Thumbnails](http://img.topddl.net/images/bb3764ec99866a6910dc2611a753c520.png "") ``` General Unique ID : 140257658438639945362310252203349430183 (0x6984A47666BF856C297AE16E0274CFA7) Complete name : [NSBC] Anata no Ban Desu -CounterAttack- E16 [WEBDL] [1080p].mkv Format : Matroska Format version : Version 4 File size : 1 010 MiB Duration : 46 min 16 s Overall bit rate : 3 052 kb/s Movie name : [NSBC] Anata no Ban Desu -CounterAttack- E16 [WEBDL] [1080p] Encoded by : NoNe | NSBC Encoded date : UTC 2019-08-11 23:54:39 Writing application : mkvmerge v35.0.0 ('All The Love In The World') 64-bit Writing library : libebml v1.3.9 + libmatroska v1.5.2 Copyright : NSBC Comment : NoNe | NSBC DATE_RECORDED : 2019 Video ID : 1 Format : AVC Format/Info : Advanced Video Codec Format profile : High@L4 Format settings : CABAC / 4 Ref Frames Format settings, CABAC : Yes Format settings, Reference frames : 4 frames Codec ID : V_MPEG4/ISO/AVC Duration : 46 min 16 s Bit rate : 2 985 kb/s Width : 1 920 pixels Height : 1 080 pixels Display aspect ratio : 16:9 Frame rate mode : Constant Frame rate : 29.970 (30000/1001) FPS Color space : YUV Chroma subsampling : 4:2:0 Bit depth : 8 bits Scan type : Progressive Bits/(Pixel*Frame) : 0.048 Stream size : 988 MiB (98%) Title : [NSBC] Writing library : Zencoder Video Encoding System Default : Yes Forced : No Audio ID : 2 Format : AAC LC Format/Info : Advanced Audio Codec Low Complexity Codec ID : A_AAC-2 Duration : 46 min 16 s Bit rate : 64.0 kb/s Channel(s) : 2 channels Channel layout : L R Sampling rate : 48.0 kHz Frame rate : 46.875 FPS (1024 SPF) Compression mode : Lossy Delay relative to video : -67 ms Stream size : 21.2 MiB (2%) Title : [NSBC] Language : Japanese Default : Yes Forced : No ```

File list

  • [NSBC] Anata no Ban Desu -CounterAttack- E16 [WEBDL] [1080p].mkv (1009.9 MiB)