[NSBC] Ossan's Love SP E01 [WEBDL] [1080p]

Category:
Date:
2019-08-11 07:42 UTC
Submitter:
Seeders:
9
Information:
TlNCQy50bw==
Leechers:
9
File size:
2.5 GiB
Completed:
360
Info hash:
1566fadf12aa2223568a199365b8bd216253a0f9
> ### Download E01 V2 in [Here](http://bit.ly/2MVPn1t) ![Posters](http://img.topddl.net/images/d79381f2a4cd614482a2b4be360acd54.jpg "") ![Thumbnails](http://img.topddl.net/images/58d651d921d3a373bdced7ca08fd8801.png "") ``` General Unique ID : 59471210753329828739832282169862215075 (0x2CBDBD12643192FD6EB0339A63B355A3) Complete name : [NSBC] Ossan's Love SP E01 [WEBDL] [1080p].mkv Format : Matroska Format version : Version 4 File size : 2.46 GiB Duration : 1 h 23 min Overall bit rate : 4 197 kb/s Movie name : [NSBC] Ossan's Love SP E01 [WEBDL] [1080p] Encoded by : NoNe | NSBC Encoded date : UTC 2019-08-11 07:37:08 Writing application : mkvmerge v35.0.0 ('All The Love In The World') 64-bit Writing library : libebml v1.3.9 + libmatroska v1.5.2 Copyright : NSBC Comment : NoNe | NSBC DATE_RECORDED : 2019 Video ID : 1 Format : AVC Format/Info : Advanced Video Codec Format profile : Main@L3.1 Format settings : CABAC / 4 Ref Frames Format settings, CABAC : Yes Format settings, Reference frames : 4 frames Codec ID : V_MPEG4/ISO/AVC Duration : 1 h 23 min Bit rate : 4 000 kb/s Width : 1 920 pixels Height : 1 080 pixels Display aspect ratio : 16:9 Frame rate mode : Constant Frame rate : 29.970 (30000/1001) FPS Color space : YUV Chroma subsampling : 4:2:0 Bit depth : 8 bits Scan type : Progressive Bits/(Pixel*Frame) : 0.064 Stream size : 2.35 GiB (95%) Title : [NSBC] Writing library : x264 core 148 r265 3b70645 Encoding settings : cabac=1 / ref=2 / deblock=1:0:0 / analyse=0x1:0x111 / me=hex / subme=7 / psy=1 / psy_rd=1.00:0.00 / mixed_ref=1 / me_range=16 / chroma_me=1 / trellis=1 / 8x8dct=0 / cqm=0 / deadzone=21,11 / fast_pskip=1 / chroma_qp_offset=-2 / threads=9 / lookahead_threads=1 / sliced_threads=0 / nr=0 / decimate=1 / interlaced=0 / bluray_compat=0 / constrained_intra=0 / bframes=3 / b_pyramid=2 / b_adapt=1 / b_bias=0 / direct=1 / weightb=1 / open_gop=0 / weightp=2 / keyint=1000 / keyint_min=501 / scenecut=0 / intra_refresh=0 / rc_lookahead=40 / rc=2pass / mbtree=1 / bitrate=4000 / ratetol=1.0 / qcomp=0.60 / qpmin=0 / qpmax=69 / qpstep=4 / cplxblur=20.0 / qblur=0.5 / ip_ratio=1.40 / aq=1:1.00 Default : Yes Forced : No Audio ID : 2 Format : AAC LC Format/Info : Advanced Audio Codec Low Complexity Codec ID : A_AAC-2 Duration : 1 h 23 min Bit rate : 192 kb/s Channel(s) : 2 channels Channel layout : L R Sampling rate : 44.1 kHz Frame rate : 43.066 FPS (1024 SPF) Compression mode : Lossy Delay relative to video : -23 ms Stream size : 117 MiB (5%) Title : [NSBC] Language : Japanese Default : Yes Forced : No ```

File list

  • [NSBC] Ossan's Love SP E01 [WEBDL] [1080p].mkv (2.5 GiB)

NOSoba (uploader)

User
> ### Download E01 V2 in [Here](http://bit.ly/2MVPn1t)
@NOSoba You are linking to https://semawur.com/links/post/85-cara-membawa-jendela-yang-hilang-kembali-ke-desktop-anda?a=ZQgK6jrmy which is an article in Indonesian about VMware. Perhaps you've meant a different link?

NOSoba (uploader)

User
no its not, do you know about shortlink are? if not, just check the captcha under advertisement and click blue button after that wait the count down and then click 'get link'.. you know V2 just an optional but yeah its better bitrate...
Thank you for upload ! ^^