Dragon Ball Super Episode 123 DUBBED 1080P WEBRIP AAC2.0.H.264

Category:
Date:
2019-08-11 06:32 UTC
Submitter:
Seeders:
2
Information:
No information.
Leechers:
0
File size:
1.3 GiB
Completed:
54
Info hash:
7af2793e724128839d6392f887dcb7794490752e
Format : Matroska Format version : Version 4 / Version 2 File size : 1.25 GiB Duration : 22 min 10 s Overall bit rate : 8 094 kb/s Encoded date : UTC 2019-08-11 05:11:31 Writing application : mkvmerge v36.0.0 ('Is That Jazz?') 64-bit Writing library : libebml v1.3.9 + libmatroska v1.5.2 Video ID : 1 Format : AVC Format/Info : Advanced Video Codec Format profile : High@L4 Format settings, CABAC : Yes Format settings, ReFrames : 4 frames Codec ID : V_MPEG4/ISO/AVC Duration : 22 min 10 s Bit rate : 7 963 kb/s Width : 1 920 pixels Height : 1 080 pixels Display aspect ratio : 16:9 Frame rate mode : Constant Frame rate : 23.976 (23976/1000) FPS Color space : YUV Chroma subsampling : 4:2:0 Bit depth : 8 bits Scan type : Progressive Bits/(Pixel*Frame) : 0.160 Stream size : 1.23 GiB (98%) Language : English Default : Yes Forced : No Audio ID : 2 Format : AAC Format/Info : Advanced Audio Codec Format profile : LC Codec ID : A_AAC Duration : 21 min 47 s Bit rate : 132 kb/s Channel(s) : 2 channels Channel positions : Front: L R Sampling rate : 48.0 kHz Frame rate : 46.875 FPS (1024 spf) Compression mode : Lossy Delay relative to video : -86 ms Stream size : 20.4 MiB (2%) Language : English Default : Yes Forced : No

File list

  • Dragon Ball Super S05E47 Body, Soul and Power Unleashed! Goku and Vegeta!!.mkv (1.3 GiB)