[NSBC] Beshari Gurashi E03 [WEBDL] [1080p]

Category:
Date:
2019-08-11 02:08 UTC
Submitter:
Seeders:
9
Information:
TlNCQy50bw==
Leechers:
4
File size:
1.4 GiB
Completed:
341
Info hash:
2276ef3e9a3302c78137a50ac21478def3d658b5
> ### Download E03 V2(optional) in [HERE](http://bit.ly/2KJxlwq) ![Poster](http://img.topddl.net/images/677807615e31b9389203362bf8135225.jpg "") ![Thumbnails](http://img.topddl.net/images/937ca7c2f77e9dcfcb6295e87bc41761.png "") ``` General Unique ID : 196014784212643614064986328723475915490 (0x93771301C560154ADF3CE5B8DA4BE2E2) Complete name : [NSBC] Beshari Gurashi E03 [WEBDL] [1080p].mkv Format : Matroska Format version : Version 4 File size : 1.45 GiB Duration : 40 min 27 s Overall bit rate : 5 120 kb/s Movie name : [NSBC] Beshari Gurashi E03 [WEBDL] [1080p] Encoded by : NoNe | NSBC Encoded date : UTC 2019-08-11 01:54:09 Writing application : mkvmerge v35.0.0 ('All The Love In The World') 64-bit Writing library : libebml v1.3.9 + libmatroska v1.5.2 Copyright : NSBC Comment : NoNe | NSBC DATE_RECORDED : 2019 Video ID : 1 Format : AVC Format/Info : Advanced Video Codec Format profile : High@L4 Format settings : CABAC / 3 Ref Frames Format settings, CABAC : Yes Format settings, Reference frames : 3 frames Format settings, GOP : M=1, N=30 Codec ID : V_MPEG4/ISO/AVC Duration : 40 min 26 s Bit rate : 4 990 kb/s Width : 1 920 pixels Height : 1 080 pixels Display aspect ratio : 16:9 Frame rate mode : Constant Frame rate : 29.970 (30000/1001) FPS Color space : YUV Chroma subsampling : 4:2:0 Bit depth : 8 bits Scan type : Progressive Bits/(Pixel*Frame) : 0.080 Stream size : 1.41 GiB (97%) Title : [NSBC] Writing library : Zencoder Video Encoding System Default : Yes Forced : No Color range : Limited Matrix coefficients : BT.709 Audio ID : 2 Format : AAC LC Format/Info : Advanced Audio Codec Low Complexity Codec ID : A_AAC-2 Duration : 40 min 27 s Bit rate : 128 kb/s Channel(s) : 2 channels Channel layout : L R Sampling rate : 48.0 kHz Frame rate : 46.875 FPS (1024 SPF) Compression mode : Lossy Stream size : 37.0 MiB (2%) Title : [NSBC] Language : Japanese Default : Yes Forced : No ```

File list

  • [NSBC] Beshari Gurashi E03 [WEBDL] [1080p].mkv (1.4 GiB)

NOSoba (uploader)

User
> ### Download E03 V2(optional) in [HERE](http://bit.ly/2KJxlwq)