[NSBC] Madoromi Barmaid E05 [WEBDL] [1080p]

Category:
Date:
2019-08-10 22:54 UTC
Submitter:
Seeders:
5
Information:
TlNCQy50bw==
Leechers:
1
File size:
446.4 MiB
Completed:
427
Info hash:
bc10d867d3f757358e9a84cbd45187aa857a427e
![Poster](http://img.topddl.net/images/f01d0145f7f8888e234ce52d57c9d412.png "") ![Thumbnails](http://img.topddl.net/images/e868792bbe0da860f7cc2f8631c4809d.png "") ``` General Unique ID : 160212919413385703347483708999704850859 (0x7887E2CA2F493ED22DA8487D24FD31AB) Complete name : [NSBC] Madoromi Barmaid E05 [WEBDL] [1080p].mkv Format : Matroska Format version : Version 4 File size : 446 MiB Duration : 23 min 4 s Overall bit rate : 2 705 kb/s Movie name : [NSBC] Madoromi Barmaid E05 [WEBDL] [1080p] Encoded by : NoNe | NSBC Encoded date : UTC 2019-08-10 22:43:44 Writing application : mkvmerge v35.0.0 ('All The Love In The World') 64-bit Writing library : libebml v1.3.9 + libmatroska v1.5.2 Copyright : NSBC Comment : NoNe | NSBC DATE_RECORDED : 2019 Video ID : 1 Format : AVC Format/Info : Advanced Video Codec Format profile : High@L4 Format settings : CABAC / 4 Ref Frames Format settings, CABAC : Yes Format settings, Reference frames : 4 frames Codec ID : V_MPEG4/ISO/AVC Duration : 23 min 3 s Bit rate : 2 575 kb/s Width : 1 920 pixels Height : 1 080 pixels Display aspect ratio : 16:9 Frame rate mode : Constant Frame rate : 29.970 (30000/1001) FPS Color space : YUV Chroma subsampling : 4:2:0 Bit depth : 8 bits Scan type : Progressive Bits/(Pixel*Frame) : 0.041 Stream size : 425 MiB (95%) Title : [NSBC] Writing library : Zencoder Video Encoding System Default : Yes Forced : No Color range : Limited Color primaries : BT.709 Transfer characteristics : BT.709 Matrix coefficients : BT.709 Audio ID : 2 Format : AAC LC Format/Info : Advanced Audio Codec Low Complexity Codec ID : A_AAC-2 Duration : 23 min 4 s Bit rate : 128 kb/s Channel(s) : 2 channels Channel layout : L R Sampling rate : 48.0 kHz Frame rate : 46.875 FPS (1024 SPF) Compression mode : Lossy Delay relative to video : -67 ms Stream size : 21.1 MiB (5%) Title : [NSBC] Language : Japanese Default : Yes Forced : No ```

File list

  • [NSBC] Madoromi Barmaid E05 [WEBDL] [1080p].mkv (446.4 MiB)