[NSBC] Sorezore no Dangai E02 [WEBDL] [720p]

Category:
Date:
2019-08-10 22:54 UTC
Submitter:
Seeders:
6
Information:
TlNCQy50bw==
Leechers:
4
File size:
673.7 MiB
Completed:
440
Info hash:
76b547dc9617e3ff6eadf5465297242035447b11
![Poster](http://img.topddl.net/images/ca33bbbc885d366d4a4d76b9c3d16216.png "") ![Thumbnails](http://img.topddl.net/images/fdec4879a1838d050539edb2138060ed.png "") ``` General Unique ID : 339957936486804908045650146016051037257 (0xFFC18458398A8F992FA424BB82EF8449) Complete name : [NSBC] Sorezore no Dangai E02 [WEBDL] [720p].mkv Format : Matroska Format version : Version 4 File size : 674 MiB Duration : 44 min 12 s Overall bit rate mode : Variable Overall bit rate : 2 131 kb/s Movie name : [NSBC] Sorezore no Dangai E02 [WEBDL] [720p] Encoded by : NoNe | NSBC Encoded date : UTC 2019-08-10 22:44:07 Writing application : mkvmerge v35.0.0 ('All The Love In The World') 64-bit Writing library : libebml v1.3.9 + libmatroska v1.5.2 Copyright : NSBC Comment : NoNe | NSBC DATE_RECORDED : 2019 Video ID : 1 Format : AVC Format/Info : Advanced Video Codec Format profile : High@L4.1 Format settings : CABAC / 4 Ref Frames Format settings, CABAC : Yes Format settings, Reference frames : 4 frames Codec ID : V_MPEG4/ISO/AVC Duration : 44 min 11 s Bit rate mode : Variable Bit rate : 2 000 kb/s Maximum bit rate : 6 000 kb/s Width : 1 280 pixels Height : 720 pixels Display aspect ratio : 16:9 Frame rate mode : Constant Frame rate : 29.970 (30000/1001) FPS Color space : YUV Chroma subsampling : 4:2:0 Bit depth : 8 bits Scan type : Progressive Bits/(Pixel*Frame) : 0.072 Stream size : 632 MiB (94%) Title : [NSBC] Default : Yes Forced : No Color range : Limited Color primaries : BT.709 Transfer characteristics : BT.709 Matrix coefficients : BT.709 Audio ID : 2 Format : AAC LC Format/Info : Advanced Audio Codec Low Complexity Codec ID : A_AAC-2 Duration : 44 min 11 s Bit rate : 128 kb/s Channel(s) : 2 channels Channel layout : L R Sampling rate : 48.0 kHz Frame rate : 46.875 FPS (1024 SPF) Compression mode : Lossy Delay relative to video : -67 ms Stream size : 40.5 MiB (6%) Title : [NSBC] Language : Japanese Default : Yes Forced : No ```

File list

  • [NSBC] Sorezore no Dangai E02 [WEBDL] [720p].mkv (673.7 MiB)