[NSBC] Voice E05 [WEBDL] [1080p]

Category:
Date:
2019-08-10 22:34 UTC
Submitter:
Seeders:
9
Information:
TlNCQy50bw==
Leechers:
7
File size:
1009.7 MiB
Completed:
966
Info hash:
95ba7cca3bc428d831514d53820e678117d73cb5
![Poster](http://img.topddl.net/images/932a476e9531f693364f679ee0dbd50f.jpg "") ![Thumbnails](http://img.topddl.net/images/c9ed7e59866f559a43f88e7a9953dc77.png "") ``` General Unique ID : 331527109388558146567934323486189985859 (0xF969CC79E18A23D2F4108F4B2F64A043) Complete name : [NSBC] Voice E05 [WEBDL] [1080p].mkv Format : Matroska Format version : Version 4 File size : 1 010 MiB Duration : 46 min 8 s Overall bit rate : 3 060 kb/s Movie name : [NSBC] Voice E05 [WEBDL] [1080p] Encoded by : NoNe | NSBC Encoded date : UTC 2019-08-10 22:22:45 Writing application : mkvmerge v35.0.0 ('All The Love In The World') 64-bit Writing library : libebml v1.3.9 + libmatroska v1.5.2 Copyright : NSBC Comment : NoNe | NSBC DATE_RECORDED : 2019 NOTICE ME : SENPAI Video ID : 1 Format : AVC Format/Info : Advanced Video Codec Format profile : High@L4 Format settings : CABAC / 4 Ref Frames Format settings, CABAC : Yes Format settings, Reference frames : 4 frames Codec ID : V_MPEG4/ISO/AVC Duration : 46 min 7 s Bit rate : 2 993 kb/s Width : 1 920 pixels Height : 1 080 pixels Display aspect ratio : 16:9 Frame rate mode : Constant Frame rate : 29.970 (30000/1001) FPS Color space : YUV Chroma subsampling : 4:2:0 Bit depth : 8 bits Scan type : Progressive Bits/(Pixel*Frame) : 0.048 Stream size : 988 MiB (98%) Title : [NSBC] Writing library : Zencoder Video Encoding System Default : Yes Forced : No Audio ID : 2 Format : AAC LC Format/Info : Advanced Audio Codec Low Complexity Codec ID : A_AAC-2 Duration : 46 min 8 s Bit rate : 64.0 kb/s Channel(s) : 2 channels Channel layout : L R Sampling rate : 48.0 kHz Frame rate : 46.875 FPS (1024 SPF) Compression mode : Lossy Delay relative to video : -67 ms Stream size : 21.1 MiB (2%) Title : [NSBC] Language : Japanese Default : Yes Forced : No ```

File list

  • [NSBC] Voice E05 [WEBDL] [1080p].mkv (1009.7 MiB)