[NSBC] W Kenkei no Higeki E03 [WEBDL] [720p]

Category:
Date:
2019-08-10 22:34 UTC
Submitter:
Seeders:
6
Information:
TlNCQy50bw==
Leechers:
7
File size:
1020.9 MiB
Completed:
517
Info hash:
6f7d491631b980dae8ceb13776a692feeb1733c5
![Poster](http://img.topddl.net/images/f85bbbc629b812e8e1664257e0009fbc.jpg "") ![Thumbnails](http://img.topddl.net/images/d8e365856ccc454e0d80e2097353cdaf.png "") ``` General Unique ID : 176827086334757745619247212758518260480 (0x8507A8764C5005741E246B0F92D8E300) Complete name : [NSBC] W Kenkei no Higeki E03 [WEBDL] [720p].mkv Format : Matroska Format version : Version 4 File size : 1 021 MiB Duration : 45 min 43 s Overall bit rate : 3 122 kb/s Movie name : [NSBC] W Kenkei no Higeki E03 [WEBDL] [720p] Encoded by : NoNe | NSBC Encoded date : UTC 2019-08-10 22:24:05 Writing application : mkvmerge v35.0.0 ('All The Love In The World') 64-bit Writing library : libebml v1.3.9 + libmatroska v1.5.2 Copyright : NSBC Comment : NoNe | NSBC DATE_RECORDED : 2019 Video ID : 1 Format : AVC Format/Info : Advanced Video Codec Format profile : Main@L3.1 Format settings : CABAC / 3 Ref Frames Format settings, CABAC : Yes Format settings, Reference frames : 3 frames Format settings, GOP : M=1, N=30 Codec ID : V_MPEG4/ISO/AVC Duration : 45 min 43 s Bit rate : 2 991 kb/s Width : 1 280 pixels Height : 720 pixels Display aspect ratio : 16:9 Frame rate mode : Constant Frame rate : 29.970 (30000/1001) FPS Color space : YUV Chroma subsampling : 4:2:0 Bit depth : 8 bits Scan type : Progressive Bits/(Pixel*Frame) : 0.108 Stream size : 978 MiB (96%) Title : [NSBC] Writing library : Zencoder Video Encoding System Default : Yes Forced : No Audio ID : 2 Format : AAC LC Format/Info : Advanced Audio Codec Low Complexity Codec ID : A_AAC-2 Duration : 45 min 43 s Bit rate : 128 kb/s Channel(s) : 2 channels Channel layout : L R Sampling rate : 48.0 kHz Frame rate : 46.875 FPS (1024 SPF) Compression mode : Lossy Stream size : 41.8 MiB (4%) Title : [NSBC] Language : Japanese Default : Yes Forced : No ```

File list

  • [NSBC] W Kenkei no Higeki E03 [WEBDL] [720p].mkv (1020.9 MiB)