[NSBC] Semi Otoko E03 [WEBDL] [1080p]

Category:
Date:
2019-08-10 02:55 UTC
Submitter:
Seeders:
4
Information:
TlNCQy50bw==
Leechers:
2
File size:
1.0 GiB
Completed:
447
Info hash:
d3a85aecd18376cffca6f15b569e0afddba82cff
![Poster](http://img.topddl.net/images/3e5dc861a22096a2264be2e9d9d1c85d.jpg "") ![Thumbnails](http://img.topddl.net/images/ac05745cf51cdb52489201ad25c7d1cd.png "") ``` General Unique ID : 21051376508247539881258406137077508011 (0xFD658FEDAE89DEC7B487C60B94D27AB) Complete name : [NSBC] Semi Otoko E03 [WEBDL] [1080p].mkv Format : Matroska Format version : Version 4 File size : 1.03 GiB Duration : 48 min 16 s Overall bit rate : 3 052 kb/s Movie name : [NSBC] Semi Otoko E03 [WEBDL] [1080p] Encoded by : NoNe | NSBC Encoded date : UTC 2019-08-10 00:32:07 Writing application : mkvmerge v35.0.0 ('All The Love In The World') 64-bit Writing library : libebml v1.3.9 + libmatroska v1.5.2 Copyright : NSBC Comment : NoNe | NSBC DATE_RECORDED : 2019 Video ID : 1 Format : AVC Format/Info : Advanced Video Codec Format profile : High@L4 Format settings : CABAC / 4 Ref Frames Format settings, CABAC : Yes Format settings, Reference frames : 4 frames Codec ID : V_MPEG4/ISO/AVC Duration : 48 min 16 s Bit rate : 2 985 kb/s Width : 1 920 pixels Height : 1 080 pixels Display aspect ratio : 16:9 Frame rate mode : Constant Frame rate : 29.970 (30000/1001) FPS Color space : YUV Chroma subsampling : 4:2:0 Bit depth : 8 bits Scan type : Progressive Bits/(Pixel*Frame) : 0.048 Stream size : 1.01 GiB (98%) Title : [NSBC] Writing library : Zencoder Video Encoding System Default : Yes Forced : No Color range : Limited Matrix coefficients : BT.709 Audio ID : 2 Format : AAC LC Format/Info : Advanced Audio Codec Low Complexity Codec ID : A_AAC-2 Duration : 48 min 16 s Bit rate : 63.9 kb/s Channel(s) : 2 channels Channel layout : L R Sampling rate : 48.0 kHz Frame rate : 46.875 FPS (1024 SPF) Compression mode : Lossy Delay relative to video : -67 ms Stream size : 22.1 MiB (2%) Title : [NSBC] Language : Japanese Default : Yes Forced : No ```

File list

  • [NSBC] Semi Otoko E03 [WEBDL] [1080p].mkv (1.0 GiB)