[NSBC] I Turn E05 [WEBDL] [720p]

Category:
Date:
2019-08-10 01:29 UTC
Submitter:
Seeders:
13
Information:
TlNCQy50bw==
Leechers:
5
File size:
678.3 MiB
Completed:
497
Info hash:
71394767e6e068bf84964fcdcca2ca476a5cb70a
![Poster](http://img.topddl.net/images/b87f527498d10d207614625e29f1e53d.gif "") ![Thumbnails](http://img.topddl.net/images/addf064798b001639245a126e8c2ff39.png "") ``` General Unique ID : 42569757039700951504722116792013222566 (0x2006A3112C8D652676CC8FB9DF8AF2A6) Complete name : [NSBC] I Turn E05 [WEBDL] [720p].mkv Format : Matroska Format version : Version 4 File size : 678 MiB Duration : 30 min 21 s Overall bit rate : 3 125 kb/s Movie name : [NSBC] I Turn E05 [WEBDL] [720p] Encoded by : NoNe | NSBC Encoded date : UTC 2019-08-10 00:24:36 Writing application : mkvmerge v35.0.0 ('All The Love In The World') 64-bit Writing library : libebml v1.3.9 + libmatroska v1.5.2 Copyright : NSBC Comment : NoNe | NSBC DATE_RECORDED : 2019 Video ID : 1 Format : AVC Format/Info : Advanced Video Codec Format profile : Main@L3.1 Format settings : CABAC / 3 Ref Frames Format settings, CABAC : Yes Format settings, Reference frames : 3 frames Format settings, GOP : M=1, N=30 Codec ID : V_MPEG4/ISO/AVC Duration : 30 min 20 s Bit rate : 2 994 kb/s Width : 1 280 pixels Height : 720 pixels Display aspect ratio : 16:9 Frame rate mode : Constant Frame rate : 29.970 (30000/1001) FPS Color space : YUV Chroma subsampling : 4:2:0 Bit depth : 8 bits Scan type : Progressive Bits/(Pixel*Frame) : 0.108 Stream size : 650 MiB (96%) Title : [NSBC] Writing library : Zencoder Video Encoding System Default : Yes Forced : No Audio ID : 2 Format : AAC LC Format/Info : Advanced Audio Codec Low Complexity Codec ID : A_AAC-2 Duration : 30 min 21 s Bit rate : 128 kb/s Channel(s) : 2 channels Channel layout : L R Sampling rate : 48.0 kHz Frame rate : 46.875 FPS (1024 SPF) Compression mode : Lossy Stream size : 27.7 MiB (4%) Title : [NSBC] Language : Japanese Default : Yes Forced : No ```

File list

  • [NSBC] I Turn E05 [WEBDL] [720p].mkv (678.3 MiB)
Could you write "END" at the last episode of drama? Example: [NSBC] I Turn E08 END [WEBDL] [720p]

NOSoba (uploader)

User
> Could you write “END” at the last episode of drama? sure
@NOSoba: Thank you.