[NSBC] Nagi no Oitoma E04 [WEBDL] [1080p]

Category:
Date:
2019-08-09 23:30 UTC
Submitter:
Seeders:
9
Information:
TlNCQy50bw==
Leechers:
1
File size:
727.9 MiB
Completed:
801
Info hash:
8e82c79b7ad0d54bd020be2cddb116c2f96b44e0
![Poster](http://img.topddl.net/images/100f2fe5cb9504e2be1ba3d4df8357b3.jpg "") ![Thumbnails](http://img.topddl.net/images/b6152e74771eb3b453b688b9549305ec.png "") ``` General Unique ID : 5460087985110734085102240679631582966 (0x41B931F355552DC1F0826ADB7FCF6F6) Complete name : [NSBC] Nagi no Oitoma E04 [WEBDL] [1080p].mkv Format : Matroska Format version : Version 4 File size : 728 MiB Duration : 46 min 2 s Overall bit rate : 2 211 kb/s Movie name : [NSBC] Nagi no Oitoma E04 [WEBDL] [1080p] Encoded by : NoNe | NSBC Encoded date : UTC 2019-08-09 23:21:32 Writing application : mkvmerge v35.0.0 ('All The Love In The World') 64-bit Writing library : libebml v1.3.9 + libmatroska v1.5.2 Copyright : NSBC Comment : NoNe | NSBC DATE_RECORDED : 2019 Video ID : 1 Format : AVC Format/Info : Advanced Video Codec Format profile : High@L4 Format settings : CABAC / 4 Ref Frames Format settings, CABAC : Yes Format settings, Reference frames : 4 frames Codec ID : V_MPEG4/ISO/AVC Duration : 46 min 1 s Bit rate : 2 144 kb/s Width : 1 920 pixels Height : 1 080 pixels Display aspect ratio : 16:9 Frame rate mode : Constant Frame rate : 29.970 (30000/1001) FPS Color space : YUV Chroma subsampling : 4:2:0 Bit depth : 8 bits Scan type : Progressive Bits/(Pixel*Frame) : 0.035 Stream size : 706 MiB (97%) Title : [NSBC] Writing library : Zencoder Video Encoding System Default : Yes Forced : No Color range : Limited Color primaries : BT.709 Transfer characteristics : BT.709 Matrix coefficients : BT.709 Audio ID : 2 Format : AAC LC Format/Info : Advanced Audio Codec Low Complexity Codec ID : A_AAC-2 Duration : 46 min 2 s Bit rate : 63.9 kb/s Channel(s) : 2 channels Channel layout : L R Sampling rate : 48.0 kHz Frame rate : 46.875 FPS (1024 SPF) Compression mode : Lossy Delay relative to video : -67 ms Stream size : 21.1 MiB (3%) Title : [NSBC] Language : Japanese Default : Yes Forced : No ```

File list

  • [NSBC] Nagi no Oitoma E04 [WEBDL] [1080p].mkv (727.9 MiB)