[NSBC] Watashi Danna o Shea Shiteta E06 [WEBDL] [1080p]

Category:
Date:
2019-08-09 10:34 UTC
Submitter:
Seeders:
8
Information:
TlNCQy50bw==
Leechers:
4
File size:
432.5 MiB
Completed:
418
Info hash:
665484952e79416279c9c93b27248de20b9e5438
> ### the source of 1080p are really bad quality and lowest bitrate. so [here](http://bit.ly/2M9q4cm) a better version but only 720p ![Poster](http://img.topddl.net/images/d1fb776e2471699d16c96c584742a489.png "") ![Thumbnails](http://img.topddl.net/images/607b0019a4c2956149bad8170e0ea692.png "") ``` General Unique ID : 23097334748147685002776661639833795596 (0x116062865CA3221E89C238C454DF3C0C) Complete name : [NSBC] Watashi Danna o Shea Shiteta E06 [WEBDL] [1080p].mkv Format : Matroska Format version : Version 4 File size : 433 MiB Duration : 43 min 22 s Overall bit rate : 1 394 kb/s Movie name : [NSBC] Watashi Danna o Shea Shiteta E06 [WEBDL] [1080p] Encoded by : NoNe | NSBC Encoded date : UTC 2019-08-09 10:20:00 Writing application : mkvmerge v35.0.0 ('All The Love In The World') 64-bit Writing library : libebml v1.3.9 + libmatroska v1.5.2 Copyright : NSBC Comment : NoNe | NSBC DATE_RECORDED : 2019 Video ID : 1 Format : AVC Format/Info : Advanced Video Codec Format profile : High@L4 Format settings : CABAC / 4 Ref Frames Format settings, CABAC : Yes Format settings, Reference frames : 4 frames Codec ID : V_MPEG4/ISO/AVC Duration : 43 min 21 s Bit rate : 1 328 kb/s Width : 1 920 pixels Height : 1 080 pixels Display aspect ratio : 16:9 Frame rate mode : Constant Frame rate : 29.970 (30000/1001) FPS Color space : YUV Chroma subsampling : 4:2:0 Bit depth : 8 bits Scan type : Progressive Bits/(Pixel*Frame) : 0.021 Stream size : 412 MiB (95%) Title : [NSBC] Writing library : Zencoder Video Encoding System Default : Yes Forced : No Audio ID : 2 Format : AAC LC Format/Info : Advanced Audio Codec Low Complexity Codec ID : A_AAC-2 Duration : 43 min 22 s Bit rate : 63.9 kb/s Channel(s) : 2 channels Channel layout : L R Sampling rate : 48.0 kHz Frame rate : 46.875 FPS (1024 SPF) Compression mode : Lossy Delay relative to video : -67 ms Stream size : 19.8 MiB (5%) Title : [NSBC] Language : Japanese Default : Yes Forced : No ```

File list

  • [NSBC] Watashi Danna o Shea Shiteta E06 [WEBDL] [1080p].mkv (432.5 MiB)
The NSBC releases seem to be generally a bit "mushy" (overly compressed, therefore serious lack of details even at 1080p.) Once a DoA or similar release pops up I usually switch over (even those are at a smaller resolution of 720p, better bitrate with almost double file sizes makes the picture always better.) Not sure what those NSBC encodes are (I guess they screen record an already lower bitrate web stream?)

NOSoba (uploader)

User
you know this is untouched webdl i'm not even encode it.. its a "copy" from streaming site... you can check on [here](https://tver.jp/drama) if you have vpn connected to japan. that site sometimes coming with bad quality... edit: and i'm not screen record lol
Be happy with what you get, here or elsewhere.