[NSBC] Coffee & Vanilla E06 [WEBDL] [1080p]

Category:
Date:
2019-08-09 03:19 UTC
Submitter:
Seeders:
12
Information:
TlNCQy50bw==
Leechers:
1
File size:
311.0 MiB
Completed:
489
Info hash:
261d3bb63260cbc1e52ea2adf8b73d53c684351f
![Poster](http://img.topddl.net/images/7fd06b550116690a4d742b55eb66e6bf.jpg "") ![Thumbnails](http://img.topddl.net/images/e55f8c2d3fea2334e16c580f6a7f87e5.png "") ``` General Unique ID : 159032215174415641435379891198100446625 (0x77A47D938C7608809C648F49789F1DA1) Complete name : [NSBC] Coffee & Vanilla E06 [WEBDL] [1080p].mkv Format : Matroska Format version : Version 4 File size : 311 MiB Duration : 24 min 9 s Overall bit rate : 1 800 kb/s Movie name : [NSBC] Coffee & Vanilla E06 [WEBDL] [1080p] Encoded by : NoNe | NSBC Encoded date : UTC 2019-08-09 03:10:56 Writing application : mkvmerge v35.0.0 ('All The Love In The World') 64-bit Writing library : libebml v1.3.9 + libmatroska v1.5.2 Copyright : NSBC Comment : NoNe | NSBC DATE_RECORDED : 2019 Video ID : 1 Format : AVC Format/Info : Advanced Video Codec Format profile : High@L4 Format settings : CABAC / 4 Ref Frames Format settings, CABAC : Yes Format settings, Reference frames : 4 frames Codec ID : V_MPEG4/ISO/AVC Duration : 24 min 9 s Bit rate : 1 734 kb/s Width : 1 920 pixels Height : 1 080 pixels Display aspect ratio : 16:9 Frame rate mode : Constant Frame rate : 29.970 (30000/1001) FPS Color space : YUV Chroma subsampling : 4:2:0 Bit depth : 8 bits Scan type : Progressive Bits/(Pixel*Frame) : 0.028 Stream size : 299 MiB (96%) Title : [NSBC] Writing library : Zencoder Video Encoding System Default : Yes Forced : No Color range : Limited Color primaries : BT.709 Transfer characteristics : BT.709 Matrix coefficients : BT.709 Audio ID : 2 Format : AAC LC Format/Info : Advanced Audio Codec Low Complexity Codec ID : A_AAC-2 Duration : 24 min 9 s Bit rate : 63.9 kb/s Channel(s) : 2 channels Channel layout : L R Sampling rate : 48.0 kHz Frame rate : 46.875 FPS (1024 SPF) Compression mode : Lossy Delay relative to video : -67 ms Stream size : 11.0 MiB (4%) Title : [NSBC] Language : Japanese Default : Yes Forced : No ```

File list

  • [NSBC] Coffee & Vanilla E06 [WEBDL] [1080p].mkv (311.0 MiB)