Fate Grand Order Zettai Majuu Sensen Babylonia - 00 (WEB-DL 1080p x264 AAC English Hardsubs)

Category:
Date:
2019-08-04 18:36 UTC
Submitter:
Seeders:
9
Information:
No information.
Leechers:
0
File size:
327.0 MiB
Completed:
1160
Info hash:
f1535a5d033b43c34a51aeaed1b73b205931418d
Softsubs, better video quality: https://nyaa.si/view/1164722 (subs are identical) ```General Complete name : Fate Grand Order Zettai Majuu Sensen Babylonia - 00 (WEB-DL 1080p x264 AAC English).mp4 Format : MPEG-4 Format profile : Base Media Codec ID : isom (isom/iso2/avc1/mp41) File size : 327 MiB Duration : 27 min 2 s Overall bit rate : 1 690 kb/s Movie name : 2019 Writing application : Lavf58.27.103 Copyright : MADMAN 2019 Video ID : 2 Format : AVC Format/Info : Advanced Video Codec Format profile : High@L4.1 Format settings : CABAC / 4 Ref Frames Format settings, CABAC : Yes Format settings, RefFrames : 4 frames Codec ID : avc1 Codec ID/Info : Advanced Video Coding Duration : 27 min 2 s Bit rate : 1 496 kb/s Width : 1 920 pixels Height : 1 080 pixels Display aspect ratio : 16:9 Frame rate mode : Constant Frame rate : 23.976 (24000/1001) FPS Color space : YUV Chroma subsampling : 4:2:0 Bit depth : 8 bits Scan type : Progressive Bits/(Pixel*Frame) : 0.030 Stream size : 289 MiB (88%) Writing library : x264 core 157 r2970 5493be8 Encoding settings : cabac=1 / ref=3 / deblock=1:1:1 / analyse=0x3:0x113 / me=hex / subme=8 / psy=1 / psy_rd=0.40:0.00 / mixed_ref=1 / me_range=16 / chroma_me=1 / trellis=2 / 8x8dct=1 / cqm=0 / deadzone=21,11 / fast_pskip=1 / chroma_qp_offset=-2 / threads=18 / lookahead_threads=3 / sliced_threads=0 / nr=0 / decimate=1 / interlaced=0 / bluray_compat=0 / constrained_intra=0 / bframes=5 / b_pyramid=2 / b_adapt=1 / b_bias=0 / direct=3 / weightb=1 / open_gop=0 / weightp=2 / keyint=250 / keyint_min=23 / scenecut=40 / intra_refresh=0 / rc_lookahead=60 / rc=2pass / mbtree=1 / bitrate=1496 / ratetol=1.0 / qcomp=0.60 / qpmin=4 / qpmax=69 / qpstep=4 / cplxblur=20.0 / qblur=0.5 / vbv_maxrate=4000 / vbv_bufsize=8000 / nal_hrd=none / filler=0 / ip_ratio=1.40 / aq=1:0.60 Audio ID : 1 Format : AAC Format/Info : Advanced Audio Codec Format profile : LC Codec ID : mp4a-40-2 Duration : 27 min 2 s Duration_LastFrame : -5 ms Bit rate mode : Constant Bit rate : 192 kb/s Channel(s) : 2 channels Channel positions : Front: L R Sampling rate : 48.0 kHz Frame rate : 46.875 FPS (1024 SPF) Compression mode : Lossy Stream size : 37.1 MiB (11%) Default : Yes Alternate group : 1 ```

File list

  • Fate Grand Order Zettai Majuu Sensen Babylonia - 00 (WEB-DL 1080p x264 AAC English Hardsubs).mp4 (327.0 MiB)
Isn't it softsubbed on Wakanim?

komorebi-group (uploader)

User
@Kamiyan93 Maybe, but I do not have a Wakanim account, it requires a credit card.
Fate Grand Order - Zettai Majuu Sensen Babylonia - 00.ass https://www52.zippyshare.com/v/qNjFfYjh/file.html https://www.mp4upload.com/pl1c8opb7opy
\>Isn’t it softsubbed on Wakanim? Wakanim was never softsubbed. The file size is about 1GB though. \> How’s the quality? It's pretty garbage according to the settings. "bitrate=1496" is too low for 1080p, even with barely action scenes.

komorebi-group (uploader)

User
You really expected anything else from a streamrip? Wait for the blurays in 6 months if you care about quality. It's the same quality as CR/Funamation/any other airing anime.
\> you really expected anything else from a streamrip? I do. A stream doesn't always mean "bad quality". Only when they have no clue about decent quality. For example, here settings from another anime streaming website: crf=15.0 / vbv_maxrate=20480 / vbv_bufsize=40960
>streamrips But the video is directly in the game itself and there are direct rips of it around already

komorebi-group (uploader)

User
>But the video is directly in the game itself and there are direct rips of it around already >Without english subtitles
>Wakanim was never softsubbed. Russian Wakanim doesn't have any hardsub AFAIK.
\>Russian Wakanim doesn’t have any hardsub AFAIK. The Russian dubbed Wakanim has no dialogue subs (obv). The typeset is still hardsubbed.

komorebi-group (uploader)

User
Here's this file (330mb) vs the Wakanim rip (1GB) https://cdn.knightlab.com/libs/juxtapose/latest/embed/index.html?uid=daebbffa-b6eb-11e9-b9b8-0edaf8f81e27 https://cdn.knightlab.com/libs/juxtapose/latest/embed/index.html?uid=e81a8b0c-b6eb-11e9-b9b8-0edaf8f81e27 https://cdn.knightlab.com/libs/juxtapose/latest/embed/index.html?uid=f754b5ac-b6eb-11e9-b9b8-0edaf8f81e27 Yes, there is a difference (particularly in the last image in the background and on her hair), but it's so minimal you will only notice it if you're either looking for it or extremely autistic. The 1GB rip is bloated considering whatever source they were given is trash. Still, if someone wants to OCR/type the subtitles from this rip and put it on that rip, be my guest. Probably better to take the game version (1 200 kb/s bitrate @ 720p, not on nyaa) and upscale it.
>Still, if someone wants to OCR/type the subtitles from this rip and put it on that rip, be my guest. You only need to type subs from the screen. French subs: https://www7.zippyshare.com/v/S22VKnBI/file.html Wakanim has okayish timing. PS: Aniplex is streaming via Funimation: https://twitter.com/FUNimation/status/1158090439494385666
No idea what you did with the comparison, but your Wakanim looks much worse than the one I have here: https://slowpics.org/comparison/782d051c-2eb3-4fb3-a9ec-13b2bc2ecdb8
Whatever, guys. We just need Funirip now. They released it 20 mins ago.

komorebi-group (uploader)

User
Post the same frame (3030)
\>We just need Funirip now. They released it 20 mins ago. Funi is pretty garbage as well. \>Post the same frame (3030) That's the same frame in the comparison
Meh, 8k bit rate should be enough for static. + softsub
Encoding isn't an important part of the streaming process anyway.
Ah Shit, Here We Go Again
be nice people please thanks
>You really expected anything else from a streamrip? Wait for the blurays in 6 months if you care about quality >Encoding isn’t an important part of the streaming process anyway. ( ಠ ͜ʖಠ)
> https://cdn.knightlab.com/libs/juxtapose/latest/embed/index.html?uid=daebbffa-b6eb-11e9-b9b8-0edaf8f81e27 > https://cdn.knightlab.com/libs/juxtapose/latest/embed/index.html?uid=e81a8b0c-b6eb-11e9-b9b8-0edaf8f81e27 > https://cdn.knightlab.com/libs/juxtapose/latest/embed/index.html?uid=f754b5ac-b6eb-11e9-b9b8-0edaf8f81e27 i literally cannot tell the difference between them. i can't see any differences that would effect people's viewing experience.
>be nice people please thanks There's bound to be some mildly spirited disagreement amongst nyaa's userbase of the most serious encoding aesthetes weebdom has to offer though.