Dragon Ball Super Episode 122 DUBBED 1080P WEBRIP AAC2.0.H.264

Category:
Date:
2019-08-04 07:19 UTC
Submitter:
Seeders:
2
Information:
No information.
Leechers:
0
File size:
1.3 GiB
Completed:
32
Info hash:
bddf0c2e2fa14d6680ecd20cc2822aa787a18bb2
Format : Matroska Format version : Version 4 / Version 2 File size : 1.25 GiB Duration : 22 min 10 s Overall bit rate : 8 079 kb/s Encoded date : UTC 2019-08-04 05:08:37 Writing application : mkvmerge v34.0.0 ('Sight and Seen') 64-bit Writing library : libebml v1.3.7 + libmatroska v1.5.0 Video ID : 1 Format : AVC Format/Info : Advanced Video Codec Format profile : High@L4 Format settings, CABAC : Yes Format settings, ReFrames : 4 frames Codec ID : V_MPEG4/ISO/AVC Duration : 22 min 10 s Bit rate : 7 948 kb/s Width : 1 920 pixels Height : 1 080 pixels Display aspect ratio : 16:9 Frame rate mode : Constant Frame rate : 23.976 (24000/1001) FPS Color space : YUV Chroma subsampling : 4:2:0 Bit depth : 8 bits Scan type : Progressive Bits/(Pixel*Frame) : 0.160 Stream size : 1.23 GiB (98%) Language : English Default : Yes Forced : No Audio ID : 2 Format : AAC Format/Info : Advanced Audio Codec Format profile : LC Codec ID : A_AAC Duration : 21 min 48 s Bit rate : 132 kb/s Channel(s) : 2 channels Channel positions : Front: L R Sampling rate : 48.0 kHz Frame rate : 46.875 FPS (1024 spf) Compression mode : Lossy Delay relative to video : -86 ms Stream size : 20.5 MiB (2%) Language : English Default : Yes Forced : No

File list

  • Dragon Ball Super S05E46 With His Pride on the Line! Vegeta's Challenge to Be the Strongest!.mkv (1.3 GiB)