[zTG] Yakusoku no Neverland - 01 [BD 1080p FLAC][1e4d4519].mkv

Category:
Date:
2019-07-28 11:19 UTC
Submitter:
Seeders:
2
Information:
No information.
Leechers:
0
File size:
420.2 MiB
Completed:
169
Info hash:
c05ea4b1706282f91672a305632dd3819a14902d
First encoding test by me. Encoded from the BDMV that clambert12 uploaded here. Encoded using XMedia Recode 3.4.7.3, slow preset with crf18, High 10, Animation tune. Subs are GJM, retimed to work with the BDMV video. (-3.79s) Please tell me in the comments what I did wrong, so I can create better encodes! If enough people like this, I'll download and encode all episodes and release them here. ``` General Unique ID : 3030180627905895653826926129201002843 (0x247977087A1844C8241BE4196F7B95B) Complete name : [zTG] Yakusoku no Neverland - 01 [BD 1080p FLAC][1e4d4519].mkv Format : Matroska Format version : Version 4 File size : 420 MiB Duration : 22 min 51 s Overall bit rate mode : Variable Overall bit rate : 2 570 kb/s Encoded date : UTC 2019-07-28 01:26:22 Writing application : mkvmerge v35.0.0 ('All The Love In The World') 32-bit Writing library : libebml v1.3.9 + libmatroska v1.5.2 Attachments : BLUEBRUSH-NORMAL.TTF / DOMINICAN.TTF / GANDHISANS-BOLD.OTF / GANDHISANS-BOLDITALIC.OTF / KOZUKAMINCHOPROSTRIPPEDV2H-BOLD.OTF / LOVELETTERTW.TTF Video ID : 1 Format : AVC Format/Info : Advanced Video Codec Format profile : High 10@L5 Format settings : CABAC / 5 Ref Frames Format settings, CABAC : Yes Format settings, ReFrames : 5 frames Codec ID : V_MPEG4/ISO/AVC Duration : 22 min 51 s Bit rate : 1 161 kb/s Width : 1 920 pixels Height : 1 080 pixels Display aspect ratio : 16:9 Frame rate mode : Constant Frame rate : 23.976 (24000/1001) FPS Color space : YUV Chroma subsampling : 4:2:0 Bit depth : 10 bits Scan type : Progressive Bits/(Pixel*Frame) : 0.023 Stream size : 190 MiB (45%) Title : BDMV -> Hi10P Writing library : x264 core 157 r2969 Encoding settings : cabac=1 / ref=5 / deblock=1:1:1 / analyse=0x3:0x133 / me=umh / subme=8 / psy=1 / psy_rd=0.40:0.00 / mixed_ref=0 / me_range=16 / chroma_me=1 / trellis=1 / 8x8dct=1 / cqm=0 / deadzone=21,11 / fast_pskip=1 / chroma_qp_offset=-2 / threads=3 / lookahead_threads=1 / sliced_threads=0 / nr=0 / decimate=1 / interlaced=0 / bluray_compat=0 / constrained_intra=0 / bframes=3 / b_pyramid=0 / b_adapt=2 / b_bias=0 / direct=3 / weightb=1 / open_gop=0 / weightp=2 / keyint=239 / keyint_min=23 / scenecut=40 / intra_refresh=0 / rc_lookahead=50 / rc=crf / mbtree=1 / crf=18.0 / qcomp=0.60 / qpmin=10 / qpmax=69 / qpstep=4 / vbv_maxrate=2000 / vbv_bufsize=24000 / crf_max=0.0 / nal_hrd=none / filler=0 / frame-packing=0 / ip_ratio=1.40 / aq=3:0.60 Language : Japanese Default : Yes Forced : No Audio ID : 2 Format : FLAC Format/Info : Free Lossless Audio Codec Codec ID : A_FLAC Duration : 22 min 51 s Bit rate mode : Variable Bit rate : 1 401 kb/s Channel(s) : 2 channels Channel layout : L R Sampling rate : 48.0 kHz Frame rate : 10.417 FPS (4608 SPF) Bit depth : 24 bits Compression mode : Lossless Stream size : 229 MiB (55%) Title : PCM -> FLAC Language : Japanese Default : Yes Forced : No Text ID : 3 Format : ASS Codec ID : S_TEXT/ASS Codec ID/Info : Advanced Sub Station Alpha Duration : 22 min 26 s Bit rate : 2 722 b/s Count of elements : 3357 Compression mode : Lossless Stream size : 448 KiB (0%) Title : GJM (re-timed) Language : English Default : Yes Forced : No Menu 00:00:00.000 : en:Prologue 00:00:57.188 : en:OP 00:02:27.236 : en:Main Episode 00:21:21.202 : en:ED ```

File list

  • [zTG] Yakusoku no Neverland - 01 [BD 1080p FLAC][1e4d4519].mkv (420.2 MiB)
\> Please tell me in the comments what I did wrong Pretty much everything. Take a look at decent fansub encodes and try to recreate their settings. For example: it makes no sense to restrict the bitrate on a bd encode Also, using something better than a random gui tool and decent filtering could also help

TGminer (uploader)

User
Alright, thanks! I'll try to do better next time.
Include PGS subs as well

TGminer (uploader)

User
Quick note: There are no subtitles in the BDMV.