Hen Semi

Category:
Date:
2019-07-28 09:43 UTC
Submitter:
Anonymous
Seeders:
4
Information:
No information.
Leechers:
1
File size:
2.5 GiB
Completed:
302
Info hash:
6016cdf15976bc3408312e111185c8cda0faa3cc
Fansub: WhyNot

File list

  • Hen Semi
    • [WhyNot] Hen Zemi - 01 [C7EE7EA0].mkv (114.3 MiB)
    • [WhyNot] Hen Zemi - 02 [F99CC5DF].mkv (157.2 MiB)
    • [WhyNot] Hen Zemi - 03 [D5AD5FD1].mkv (145.4 MiB)
    • [WhyNot] Hen Zemi - 04 [1577D27D].mkv (143.5 MiB)
    • [WhyNot] Hen Zemi - 05 [0E0FE82B].mkv (151.5 MiB)
    • [WhyNot] Hen Zemi - 06v2 [A013BD69].mkv (137.6 MiB)
    • [WhyNot] Hen Zemi - 07 [806D0172].mkv (150.1 MiB)
    • [WhyNot] Hen Zemi - 08v2 [30952531].mkv (178.1 MiB)
    • [WhyNot] Hen Zemi - 09 [0E329657].mkv (199.2 MiB)
    • [WhyNot] Hen Zemi - 10v2 [51B14569].mkv (201.3 MiB)
    • [WhyNot] Hen Zemi - 11v2 [9F9A95BB].mkv (156.6 MiB)
    • [WhyNot] Hen Zemi - 12v2 [D48FE4B6].mkv (147.0 MiB)
    • [WhyNot] Hen Zemi - 13 [EB53A58C].mkv (163.2 MiB)
    • [WhyNot] Hen Zemi OAD - 01 [DVD 480p AAC][EF191413].mkv (247.3 MiB)
    • [WhyNot] Hen Zemi OAD - 02 [DVD 480p AAC][317F2ADA].mkv (256.4 MiB)
tag as reupload then. I thought it's BD
>tag as reupload then. The remake flag is not a "reupload" flag. Please read the help page to find out what it means.
Needs more detail. Is this BD or isn't it? DVD? And what resolution is this?
>Needs more detail. Is this BD or isn’t it? DVD? And what resolution is this? AniDB does that, just check the CRCs of the files
E01 looks upscaled, but watchable E01 FFprobe: Metadata: encoder : libebml v1.2.0 + libmatroska v1.1.0 creation_time : 2011-04-15T00:56:43.000000Z Duration: 00:12:17.11, start: 0.000000, bitrate: 1300 kb/s Stream #0:0(jpn): Video: h264 (High), yuv420p(progressive), 1280x720, SAR 1:1 DAR 16:9, 23.98 fps, 23.98 tbr, 1k tbn, 47.95 tbc (default) Stream #0:1(jpn): Audio: aac (LC), 48000 Hz, stereo, fltp (default) Stream #0:2(eng): Subtitle: ass (default) E10v2's ffprobe is pretty much the same, except bitrate is 2328 kb/s OAD 01 FFprobe: Metadata: encoder : libebml v1.2.0 + libmatroska v1.1.0 creation_time : 2011-04-15T01:09:48.000000Z Duration: 00:26:39.64, start: 0.000000, bitrate: 1296 kb/s Stream #0:0(jpn): Video: h264 (High), yuv420p(progressive), 716x478, SAR 222:187 DAR 79476:44693, 23.98 fps, 23.98 tbr, 1k tbn, 47.95 tbc (default) Stream #0:1(jpn): Audio: aac (LC), 96000 Hz, stereo, fltp (default) Stream #0:2(eng): Subtitle: ass (default)