[NSBC] Lupin no Musume E03 [WEBDL] [1080p]

Category:
Date:
2019-07-27 00:21 UTC
Submitter:
Seeders:
7
Information:
TlNCQy50bw==
Leechers:
1
File size:
1004.9 MiB
Completed:
710
Info hash:
4b44269a26f71f01711209156e62dcd4e4846812
> ### Subtitle English & Indonesian > ### Also available on [Subscene](https://subscene.com/subtitles/daughter-of-lupin) ![POSTER](http://img.topddl.net/images/ac2ad2791b6c7edd1e9278fe66bef65c.jpg "") ![THUMBNAILS](http://img.topddl.net/images/c13b5cbe0697d294ba4b71be7ff5bbcf.jpg "") ``` General Unique ID : 20775083345318955016372951299940198091 (0xFA122B0DC7D22F7209F36569294A6CB) Complete name : [NSBC] Lupin no Musume E03 [WEBDL] [1080p].mkv Format : Matroska Format version : Version 4 File size : 1 005 MiB Duration : 45 min 47 s Overall bit rate : 3 068 kb/s Movie name : [NSBC] Lupin no Musume E03 [WEBDL] [1080p] Encoded by : NoNe | NSBC Encoded date : UTC 2019-07-27 00:16:42 Writing application : mkvmerge v35.0.0 ('All The Love In The World') 64-bit Writing library : libebml v1.3.9 + libmatroska v1.5.2 Copyright : NSBC Comment : NoNe | NSBC DATE_RECORDED : 2019 Video ID : 1 Format : AVC Format/Info : Advanced Video Codec Format profile : High@L4 Format settings : CABAC / 4 Ref Frames Format settings, CABAC : Yes Format settings, Reference frames : 4 frames Codec ID : V_MPEG4/ISO/AVC Duration : 45 min 47 s Bit rate : 3 000 kb/s Width : 1 920 pixels Height : 1 080 pixels Display aspect ratio : 16:9 Frame rate mode : Constant Frame rate : 24.000 FPS Color space : YUV Chroma subsampling : 4:2:0 Bit depth : 8 bits Scan type : Progressive Bits/(Pixel*Frame) : 0.060 Stream size : 983 MiB (98%) Title : [NSBC] Writing library : x264 core 152 r2851 ba24899 Encoding settings : cabac=1 / ref=4 / deblock=1:0:0 / analyse=0x3:0x113 / me=hex / subme=8 / psy=1 / psy_rd=1.00:0.00 / mixed_ref=1 / me_range=16 / chroma_me=1 / trellis=2 / 8x8dct=1 / cqm=0 / deadzone=21,11 / fast_pskip=1 / chroma_qp_offset=-2 / threads=10 / lookahead_threads=1 / sliced_threads=0 / nr=0 / decimate=1 / interlaced=0 / bluray_compat=0 / constrained_intra=0 / bframes=0 / weightp=2 / keyint=72 / keyint_min=7 / scenecut=40 / intra_refresh=0 / rc_lookahead=50 / rc=cbr / mbtree=1 / bitrate=3000 / ratetol=1.0 / qcomp=0.90 / qpmin=3 / qpmax=51 / qpstep=8 / vbv_maxrate=3000 / vbv_bufsize=12000 / nal_hrd=none / filler=0 / ip_ratio=1.40 / aq=1:1.00 Default : Yes Forced : No Audio ID : 2 Format : AAC LC Format/Info : Advanced Audio Codec Low Complexity Codec ID : A_AAC-2 Duration : 45 min 47 s Bit rate : 64.7 kb/s Channel(s) : 2 channels Channel layout : L R Sampling rate : 44.1 kHz Frame rate : 43.066 FPS (1024 SPF) Compression mode : Lossy Delay relative to video : 46 ms Stream size : 21.2 MiB (2%) Title : [NSBC] Language : Japanese Default : Yes Forced : No Text #1 ID : 3 Format : UTF-8 Codec ID : S_TEXT/UTF8 Codec ID/Info : UTF-8 Plain Text Duration : 45 min 40 s Bit rate : 59 b/s Count of elements : 829 Stream size : 19.9 KiB (0%) Title : [NSBC] [EN] Language : English Default : Yes Forced : No Text #2 ID : 4 Format : UTF-8 Codec ID : S_TEXT/UTF8 Codec ID/Info : UTF-8 Plain Text Duration : 45 min 40 s Bit rate : 62 b/s Count of elements : 829 Stream size : 21.0 KiB (0%) Title : [NSBC] [ID] Language : Indonesian Default : No Forced : No ```

File list

  • [NSBC] Lupin no Musume E03 [WEBDL] [1080p].mkv (1004.9 MiB)
Speedy! Thanks for the hard work.