SSSS.Gridman_(BD720p_10bit_HEVC_SmoodFlamez)

Category:
Date:
2019-07-14 13:27 UTC
Submitter:
Seeders:
4
Information:
No information.
Leechers:
0
File size:
1.4 GiB
Completed:
213
Info hash:
64af698ce2740ed9705e2fd5695cc8bc659cf8c2
Title SSSS Gridman ![img](https://i.imgur.com/VtpFyS0.jpg[/img]) Source DmonHiro Synopsis Yuuta Hibiki wakes up in the room of Rikka Takarada and notices two things: he has no memories, and he can hear a mysterious voice calling his name from a nearby room. On further inspection, he finds a robot—which introduces itself as Hyper Agent Gridman—behind the screen of an old computer. Much to Yuuta's surprise, Rikka cannot hear Gridman, nor can she see the ominous monsters looming over a thick fog as it envelopes the town outside. Another giant monster materializes in the city and proceeds to wreak havoc. Amidst the confusion, Yuuta is once again drawn to the old computer and merges with Gridman. Suddenly, he appears in the middle of the battle and is forced to fight the monster. Together with Rikka and fellow classmate Shou Utsumi, Yuuta forms the "Gridman Alliance" to defeat the monsters plaguing the city and find whoever is responsible for their emergence. Information Type: TV Episodes: 12 Status: Finished Airing Aired: Oct 7, 2018 to Dec 23, 2018 Premiered: Fall 2018 Broadcast: Sundays at 00:00 (JST) Producers: Mainichi Broadcasting System, Pony Canyon, Tsuburaya Productions, KlockWorx, Ultra Super Pictures, Graphinica, Docomo Anime Store, Fields, BS11 Licensors: Funimation Studios: Trigger Source: Original Genres: Action, Sci-Fi, Mecha Duration: 23 min. per ep. Rating: PG-13 - Teens 13 or older ====================================================== MediaInfo Video ID : 1 Format : HEVC Format/Info : High Efficiency Video Coding Format profile : Main 10@L3.1@Main Codec ID : V_MPEGH/ISO/HEVC Duration : 23 min 41 s Bit rate : 661 kb/s Width : 1 280 pixels Height : 720 pixels Display aspect ratio : 16:9 Frame rate mode : Constant Frame rate : 23.976 (24000/1001) FPS Color space : YUV Chroma subsampling : 4:2:0 Bit depth : 10 bits Audio ID : 2 Format : Vorbis Format settings, Floor : 1 Codec ID : A_VORBIS Duration : 23 min 41 s Bit rate mode : Variable Bit rate : 80.0 kb/s Channel(s) : 2 channels Sampling rate : 48.0 kHz Frame rate : 55.750 FPS (861 SPF) Compression mode : Lossy Delay relative to video : 9 ms Stream size : 12.6 MiB (10%) Title : Stereo Writing library : libVorbis (Now 100% fewer shells) (20180316 (Now 100% fewer shells)) Language : English Default : Yes Forced : No Comment : Processed by SoX Text ID : 3 Format : ASS Codec ID : S_TEXT/ASS Codec ID/Info : Advanced Sub Station Alpha Duration : 20 min 12 s Bit rate : 171 b/s Count of elements : 315 Compression mode : Lossless Stream size : 25.4 KiB (0%) Default : No Forced : Yes ============================================================ Screenshots ![img](https://i.imgur.com/Hk75lBW.png[/img]) ![img](https://i.imgur.com/uHPnXJD.png[/img])

File list

  • SSSS.Gridman_(BD720p_10bit_HEVC_SmoodFlamez)
    • Illustrations
      • 1530787876536.jpg (716.8 KiB)
      • 3e2d0c1ed5c02ca68c0708cc60619469.jpg (222.1 KiB)
      • 40.jpg (322.4 KiB)
      • 60c39e07362620680d3b84b20eaa27f2f59008ae.jpg (3.3 MiB)
      • hibiki-yuuta-ssss-gridman-anti-shinjou-akane-takarada-rikka-kimono.jpeg (2.0 MiB)
      • lFq1MoK.jpg (1002.3 KiB)
      • tomcat-1538387438-19-8.jpg (255.0 KiB)
    • Screenshots+Font
      • 2019-07-12_184706.png (1.4 MiB)
      • 2019-07-12_184723.png (1.6 MiB)
      • 2019-07-12_184736.png (1.6 MiB)
      • 2019-07-12_184754.png (1.3 MiB)
      • A25-SQUANOVA.ttf (10.6 KiB)
    • 01 - Awakening.mkv (89.1 MiB)
    • 02 - Restoration.mkv (108.7 MiB)
    • 03 - Defeat.mkv (125.4 MiB)
    • 04 - Suspicion.mkv (100.1 MiB)
    • 05 - Provocation.mkv (139.3 MiB)
    • 06 - Contact.mkv (97.4 MiB)
    • 07 - Scheme.mkv (102.1 MiB)
    • 08 - Confrontation.mkv (125.0 MiB)
    • 09 - Dream.mkv (91.6 MiB)
    • 10 - Collapse.mkv (122.7 MiB)
    • 11 - Decisive Battle.mkv (118.7 MiB)
    • 12 - Awakening.mkv (150.6 MiB)
    • Clean Ending.mkv (3.3 MiB)
    • Clean Opening.mkv (14.0 MiB)
Thanks for your work on this series and sharing it on Nyaa.

SmoodFlamez (uploader)

User