Dragon Ball Super Episode 119 1080P WEBRIP AAC2.0.H.264

Category:
Date:
2019-07-14 07:50 UTC
Submitter:
Seeders:
6
Information:
No information.
Leechers:
0
File size:
1.3 GiB
Completed:
112
Info hash:
e8d15e878e51f804a10a71ce1f008ed3f895a96b
Format : Matroska Format version : Version 4 / Version 2 File size : 1.25 GiB Duration : 22 min 10 s Overall bit rate : 8 091 kb/s Encoded date : UTC 2019-07-14 06:56:02 Writing application : mkvmerge v34.0.0 ('Sight and Seen') 64-bit Writing library : libebml v1.3.7 + libmatroska v1.5.0 Video ID : 1 Format : AVC Format/Info : Advanced Video Codec Format profile : High@L4 Format settings, CABAC : Yes Format settings, ReFrames : 4 frames Codec ID : V_MPEG4/ISO/AVC Duration : 22 min 10 s Bit rate : 7 965 kb/s Width : 1 920 pixels Height : 1 080 pixels Display aspect ratio : 16:9 Frame rate mode : Constant Frame rate : 23.976 (23976/1000) FPS Color space : YUV Chroma subsampling : 4:2:0 Bit depth : 8 bits Scan type : Progressive Bits/(Pixel*Frame) : 0.160 Stream size : 1.23 GiB (98%) Language : English Default : Yes Forced : No Audio ID : 2 Format : AAC Format/Info : Advanced Audio Codec Format profile : LC Codec ID : A_AAC Duration : 21 min 43 s Bit rate : 126 kb/s Channel(s) : 2 channels Channel positions : Front: L R Sampling rate : 44.1 kHz Frame rate : 43.066 FPS (1024 spf) Compression mode : Lossy Delay relative to video : -86 ms Stream size : 19.5 MiB (2%) Language : English Default : Yes Forced : No

File list

  • Dragon Ball Super S05E43 Unavoidable The Ferocity of a Stealth Attack!.mkv (1.3 GiB)
Better known as episode 119.
Better known as episode 119. (2)
This is dub audio muxed with Japanese video.
is there Dragon Ball Super Episode 118 1080P WEBRIP AAC2.0.H.264 upload yet