Dragon.Ball.Super.S05.Filter.P2.1080p.Blu-Ray.10-Bit.Dual-Audio.TrueHD.x265-iAHD

Category:
Date:
2019-07-13 14:29 UTC
Submitter:
Seeders:
0
Information:
No information.
Leechers:
0
File size:
20.5 GiB
Completed:
79
Info hash:
4cf8fbc2b8da583758fa7d7e29d64998fadb328a
NOTE: Dragon Ball Super Part 8 US Blu-ray Episodes 92-104 encoded with a Denoise Filter straight from the Blu-ray's Video ID : 1 Format : HEVC Format/Info : High Efficiency Video Coding Format profile : Main 10@L5@Main Codec ID : V_MPEGH/ISO/HEVC Duration : 23 min 7 s Bit rate : 6 824 kb/s Width : 1 920 pixels Height : 1 080 pixels Display aspect ratio : 16:9 Frame rate mode : Constant Frame rate : 23.976 (24000/1001) FPS Color space : YUV Chroma subsampling : 4:2:0 Bit depth : 10 bits Bits/(Pixel*Frame) : 0.137 Stream size : 1.10 GiB (74%) Writing library : x265 2.9:[Windows][GCC 8.2.0][64 bit] 10bit Encoding settings : cpuid=1111039 / frame-threads=4 / numa-pools=16 / wpp / no-pmode / no-pme / no-psnr / no-ssim / log-level=2 / input-csp=1 / input-res=1920x1080 / interlace=0 / total-frames=0 / level-idc=0 / high-tier=1 / uhd-bd=0 / ref=6 / no-allow-non-conformance / no-repeat-headers / annexb / no-aud / no-hrd / info / hash=0 / no-temporal-layers / open-gop / min-keyint=24 / keyint=240 / gop-lookahead=0 / bframes=16 / b-adapt=2 / b-pyramid / bframe-bias=0 / rc-lookahead=50 / lookahead-slices=4 / scenecut=40 / radl=0 / no-intra-refresh / ctu=32 / min-cu-size=8 / rect / no-amp / max-tu-size=32 / tu-inter-depth=1 / tu-intra-depth=3 / limit-tu=0 / rdoq-level=2 / dynamic-rd=0.00 / no-ssim-rd / signhide / tskip / nr-intra=0 / nr-inter=0 / no-constrained-intra / strong-intra-smoothing / max-merge=3 / limit-refs=3 / limit-modes / me=3 / subme=3 / merange=57 / temporal-mvp / weightp / no-weightb / no-analyze-src-pics / deblock=0:0 / sao / no-sao-non-deblock / rd=4 / no-early-skip / rskip / no-fast-intra / tskip-fast / no-cu-lossless / no-b-intra / no-splitrd-skip / rdpenalty=0 / psy-rd=2.00 / psy-rdoq=1.00 / no-rd-refine / no-lossless / cbqpoffs=0 / crqpoffs=0 / rc=crf / crf=16.0 / qcomp=0.60 / qpstep=4 / stats-write=0 / stats-read=0 / ipratio=1.40 / pbratio=1.30 / aq-mode=3 / aq-strength=0.80 / cutree / zone-count=0 / no-strict-cbr / qg-size=32 / no-rc-grain / qpmax=69 / qpmin=0 / no-const-vbv / sar=1 / overscan=0 / videoformat=5 / range=0 / colorprim=1 / transfer=1 / colormatrix=1 / chromaloc=0 / display-window=0 / max-cll=0,0 / min-luma=0 / max-luma=1023 / log2-max-poc-lsb=8 / vui-timing-info / vui-hrd-info / slices=1 / no-opt-qp-pps / no-opt-ref-list-length-pps / no-multi-pass-opt-rps / scenecut-bias=0.05 / no-opt-cu-delta-qp / no-aq-motion / no-hdr / no-hdr-opt / no-dhdr10-opt / no-idr-recovery-sei / analysis-reuse-level=5 / scale-factor=0 / refine-intra=0 / refine-inter=0 / refine-mv=0 / no-limit-sao / ctu-info=0 / no-lowpass-dct / refine-mv-type=0 / copy-pic=1 / max-ausize-factor=1.0 / no-dynamic-refine / no-single-sei Language : English Default : Yes Forced : No Color range : Limited Color primaries : BT.709 Transfer characteristics : BT.709 Matrix coefficients : BT.709 Audio #1 ID : 2 Format : MLP FBA Format/Info : Meridian Lossless Packing FBA Commercial name : Dolby TrueHD Codec ID : A_TRUEHD Duration : 23 min 7 s Bit rate mode : Variable Bit rate : 1 516 kb/s Maximum bit rate : 2 592 kb/s Channel(s) : 6 channels Channel layout : L R C LFE Ls Rs Sampling rate : 48.0 kHz Frame rate : 1 200.000 FPS (40 SPF) Compression mode : Lossless Stream size : 251 MiB (16%) Language : English Default : Yes Forced : No Audio #2 ID : 3 Format : MLP FBA Format/Info : Meridian Lossless Packing FBA Commercial name : Dolby TrueHD Codec ID : A_TRUEHD Duration : 23 min 7 s Bit rate mode : Variable Bit rate : 790 kb/s Maximum bit rate : 1 134 kb/s Channel(s) : 2 channels Channel layout : L R Sampling rate : 48.0 kHz Frame rate : 1 200.000 FPS (40 SPF) Compression mode : Lossless Stream size : 131 MiB (9%) Language : Japanese Default : No Forced : No Text ID : 4 Format : PGS Muxing mode : zlib Codec ID : S_HDMV/PGS Codec ID/Info : Picture based subtitle format used on BDs/HD-DVDs Duration : 22 min 51 s Bit rate : 45.0 kb/s Count of elements : 656 Stream size : 7.36 MiB (0%) Title : Dialogue Language : English Default : No Forced : No Menu 00:00:00.000 : en:Chapter 01 00:01:26.086 : en:Chapter 02 00:12:46.266 : en:Chapter 03 00:21:36.295 : en:Chapter 04 00:22:36.355 : en:Chapter 05

File list

  • Dragon.Ball.Super.S05.Filter.P2.1080p.Blu-Ray.10-Bit.Dual-Audio.TrueHD.x265-iAHD
    • Dragon.Ball.Super.S05E16.1080p.Blu-Ray.10-Bit.Dual-Audio.TrueHD.x265-Filter-iAHD.mkv (1.5 GiB)
    • Dragon.Ball.Super.S05E17.1080p.Blu-Ray.10-Bit.Dual-Audio.TrueHD.x265-Filter-iAHD.mkv (1.6 GiB)
    • Dragon.Ball.Super.S05E18.1080p.Blu-Ray.10-Bit.Dual-Audio.TrueHD.x265-Filter-iAHD.mkv (1.4 GiB)
    • Dragon.Ball.Super.S05E19.1080p.Blu-Ray.10-Bit.Dual-Audio.TrueHD.x265-Filter-iAHD.mkv (1.5 GiB)
    • Dragon.Ball.Super.S05E20.1080p.Blu-Ray.10-Bit.Dual-Audio.TrueHD.x265-Filter-iAHD.mkv (1.4 GiB)
    • Dragon.Ball.Super.S05E21.1080p.Blu-Ray.10-Bit.Dual-Audio.TrueHD.x265-Filter-iAHD.mkv (1.5 GiB)
    • Dragon.Ball.Super.S05E22.1080p.Blu-Ray.10-Bit.Dual-Audio.TrueHD.x265-Filter-iAHD.mkv (1.6 GiB)
    • Dragon.Ball.Super.S05E23.1080p.Blu-Ray.10-Bit.Dual-Audio.TrueHD.x265-Filter-iAHD.mkv (1.5 GiB)
    • Dragon.Ball.Super.S05E24.1080p.Blu-Ray.10-Bit.Dual-Audio.TrueHD.x265-Filter-iAHD.mkv (1.6 GiB)
    • Dragon.Ball.Super.S05E25.1080p.Blu-Ray.10-Bit.Dual-Audio.TrueHD.x265-Filter-iAHD.mkv (1.6 GiB)
    • Dragon.Ball.Super.S05E26.1080p.Blu-Ray.10-Bit.Dual-Audio.TrueHD.x265-Filter-iAHD.mkv (1.8 GiB)
    • Dragon.Ball.Super.S05E27.1080p.Blu-Ray.10-Bit.Dual-Audio.TrueHD.x265-Filter-iAHD.mkv (1.7 GiB)
    • Dragon.Ball.Super.S05E28.1080p.Blu-Ray.10-Bit.Dual-Audio.TrueHD.x265-Filter-iAHD.mkv (1.7 GiB)
could you make it 264x 8bit by any chance ?
thank you! Deserves to keep being said
@iAHD Black Clover Season 2 part 1 pre order is $37 instead of $50 on amazon right now and dragon ball super part 9 is $33 on funimations site instead of $45 and Attack on titan season 3 part one is $29 instead of $39 on funimayion
is the junji ito collection possible?
Can I kindly do Hinamatsuri bro?
Where are you?

iAHQ (uploader)

User
@ab8895 I was on vacation in Portugal for 5 weeks I just got back :)
Welcome back! I really missed you! Hope to see new content soon.
Welcome back brother!
Finally the G.O.A.T is back can't wait for the uploads
Any update on Part 9? Just asking since it just released.
@BakaMotion I think it will be coming out either in December or January