[Anime-Releases] Cooking with Valkyries EP3 - Not Enough Cream Stew [E5417EF0] (1080p_30fps_H264-128kbit_AAC).mp4

Category:
Date:
2019-07-12 15:26 UTC
Submitter:
Anonymous
Seeders:
8
File size:
62.3 MiB
Completed:
231
Info hash:
345582d4b179f4ac98c16cfc57beb64380cb8243
![alt text](https://i.redd.it/9tdtmlttex531.png "Cover") 3rd episode "Not Enough Cream Stew" from the chinese anime "Cooking With Valkyries". More info: https://anidb.net/a15005 Youtube [Honkai Impact 3rd-Global] (english subs): https://www.youtube.com/watch?v=qxrj_fovDr8 Youtube [Honkai Impact 3 - SEA] (english subs): https://www.youtube.com/watch?v=KcbqvOb9Yo8 Youtube [崩壞3rd] (chinese subs): https://www.youtube.com/watch?v=gqZnEjb49so The file was downloaded from YouTube (see links above) and then cleaned up with ffmpeg to remove useless Youtube metadata. ```ffmpeg -y -i input.mp4 -c copy -map_metadata -1 -metadata title="" -map_chapters -1 output.mp4``` File information: ``` Video ID : 1 Format : AVC Format/Info : Advanced Video Codec Format profile : High@L4.0 Format settings, CABAC : Yes Format settings, ReFrames : 3 frames Codec ID : avc1 Codec ID/Info : Advanced Video Coding Duration : 5mn 6s Bit rate : 1 568 Kbps Width : 1 920 pixels Height : 1 080 pixels Display aspect ratio : 16:9 Frame rate mode : Constant Frame rate : 30.000 fps Color space : YUV Chroma subsampling : 4:2:0 Bit depth : 8 bits Scan type : Progressive Bits/(Pixel*Frame) : 0.025 Stream size : 57.3 MiB (92%) Color primaries : BT.709 Transfer characteristics : BT.709 Matrix coefficients : BT.709 Color range : Limited Audio ID : 2 Format : AAC Format/Info : Advanced Audio Codec Format profile : LC Codec ID : 40 Duration : 5mn 6s Bit rate mode : Constant Bit rate : 128 Kbps Channel(s) : 2 channels Channel positions : Front: L R Sampling rate : 44.1 KHz Compression mode : Lossy Stream size : 4.68 MiB (8%) ```

File list

  • [Anime-Releases] Cooking with Valkyries EP3 - Not Enough Cream Stew [E5417EF0] (1080p_30fps_H264-128kbit_AAC).mp4 (62.3 MiB)