[Anime-Releases] Cooking with Valkyries EP1 - Bronya's Special Borscht [4C9C0BEA] (1080p_30fps_H264-128kbit_AAC).mp4

Category:
Date:
2019-07-12 15:23 UTC
Submitter:
Anonymous
Seeders:
0
File size:
70.9 MiB
Completed:
474
Info hash:
1e8b25df14f3b42eaa641abd35e4a4c2b5d3218c
![alt text](https://i.redd.it/9tdtmlttex531.png "Cover") 1st episode "Bronya's Special Borscht" from the chinese anime "Cooking With Valkyries". More info: https://anidb.net/a15005 Youtube [Honkai Impact 3rd-Global] (english subs): https://www.youtube.com/watch?v=etmLPisO4C8 Youtube [Honkai Impact 3 - SEA] (english subs): https://www.youtube.com/watch?v=DY59OknHuro Youtube [崩壞3rd] (chinese subs): https://www.youtube.com/watch?v=TOh2TEq7iME The file was downloaded from YouTube (see links above) and then cleaned up with ffmpeg to remove useless Youtube metadata. ```ffmpeg -y -i input.mp4 -c copy -map_metadata -1 -metadata title="" -map_chapters -1 output.mp4``` File information: ``` Video ID : 1 Format : AVC Format/Info : Advanced Video Codec Format profile : High@L4.0 Format settings, CABAC : Yes Format settings, ReFrames : 3 frames Codec ID : avc1 Codec ID/Info : Advanced Video Coding Duration : 5mn 33s Bit rate : 1 651 Kbps Width : 1 920 pixels Height : 1 080 pixels Display aspect ratio : 16:9 Frame rate mode : Constant Frame rate : 30.000 fps Color space : YUV Chroma subsampling : 4:2:0 Bit depth : 8 bits Scan type : Progressive Bits/(Pixel*Frame) : 0.027 Stream size : 65.6 MiB (92%) Color primaries : BT.709 Transfer characteristics : BT.709 Matrix coefficients : BT.709 Color range : Limited Audio ID : 2 Format : AAC Format/Info : Advanced Audio Codec Format profile : LC Codec ID : 40 Duration : 5mn 33s Bit rate mode : Constant Bit rate : 128 Kbps Channel(s) : 2 channels Channel positions : Front: L R Sampling rate : 44.1 KHz Compression mode : Lossy Stream size : 5.08 MiB (7%) ```

File list

  • [Anime-Releases] Cooking with Valkyries EP1 - Bronya's Special Borscht [4C9C0BEA] (1080p_30fps_H264-128kbit_AAC).mp4 (70.9 MiB)
The footage was used from Youtube or the subs? or both of them?