[Anime-Releases] Cooking With Valkyries OP - Taste of home [BC865220] (1080p_60fps_H264-128kbit_AAC).mp4

Category:
Date:
2019-07-12 15:20 UTC
Submitter:
Anonymous
Seeders:
0
File size:
26.8 MiB
Completed:
216
Info hash:
60160d1557afc26af2c0f740b257afef7def6069
![alt text](https://i.redd.it/9tdtmlttex531.png "Cover") Opening "Taste of home" from the chinese anime "Cooking With Valkyries". More info: https://anidb.net/a15005 Youtube [Honkai Impact 3rd-Global] (english subs): https://www.youtube.com/watch?v=5pOKYkAN_3k Youtube [Honkai Impact 3 - SEA] (english subs): https://www.youtube.com/watch?v=Q-1bY9yKN_4 Youtube [崩壞3rd] (chinese subs): https://www.youtube.com/watch?v=T5GEBtGDJa8 The file was downloaded from YouTube (see links above) and then cleaned up with ffmpeg to remove useless Youtube metadata. ```ffmpeg -y -i input.mp4 -c copy -map_metadata -1 -metadata title="" -map_chapters -1 output.mp4``` File information: ``` Video ID : 1 Format : AVC Format/Info : Advanced Video Codec Format profile : High@L4.2 Format settings, CABAC : Yes Format settings, ReFrames : 3 frames Codec ID : avc1 Codec ID/Info : Advanced Video Coding Duration : 52s 734ms Bit rate : 4 132 Kbps Width : 1 920 pixels Height : 1 080 pixels Display aspect ratio : 16:9 Frame rate mode : Constant Frame rate : 60.000 fps Color space : YUV Chroma subsampling : 4:2:0 Bit depth : 8 bits Scan type : Progressive Bits/(Pixel*Frame) : 0.033 Stream size : 26.0 MiB (97%) Color primaries : BT.709 Transfer characteristics : BT.709 Matrix coefficients : BT.709 Color range : Limited Audio ID : 2 Format : AAC Format/Info : Advanced Audio Codec Format profile : LC Codec ID : 40 Duration : 52s 849ms Bit rate mode : Constant Bit rate : 128 Kbps Channel(s) : 2 channels Channel positions : Front: L R Sampling rate : 44.1 KHz Compression mode : Lossy Stream size : 826 KiB (3%) ```

File list

  • [Anime-Releases] Cooking With Valkyries OP - Taste of home [BC865220] (1080p_60fps_H264-128kbit_AAC).mp4 (26.8 MiB)