[NSBC] Watashi Danna o Shea Shiteta E02 [WEBDL] [1080p]

Category:
Date:
2019-07-11 23:40 UTC
Submitter:
Seeders:
3
Information:
TlNCQy50bw==
Leechers:
1
File size:
714.7 MiB
Completed:
661
Info hash:
a09fa2cb4baefef50c93a438dc47dc83daca28f1
![Poster](http://img.topddl.net/images/d1fb776e2471699d16c96c584742a489.png "") ![Thumbnails](http://img.topddl.net/images/0581972c1344c61501e62e93b957c2dc.jpg "") ``` General Unique ID : 25553840866017117842643213020282576488 (0x13397DA0995AA17806FCC0C553E15E68) Complete name : [NSBC] Watashi Danna o Shea Shiteta E02 [WEBDL] [1080p].mkv Format : Matroska Format version : Version 4 File size : 715 MiB Duration : 43 min 21 s Overall bit rate : 2 305 kb/s Movie name : [NSBC] Watashi Danna o Shea Shiteta E02 [WEBDL] [1080p] Encoded by : NoNe | NSBC Encoded date : UTC 2019-07-11 23:30:15 Writing application : mkvmerge v35.0.0 ('All The Love In The World') 64-bit Writing library : libebml v1.3.9 + libmatroska v1.5.2 Copyright : NSBC Comment : NoNe | NSBC DATE_RECORDED : 2019 Video ID : 1 Format : AVC Format/Info : Advanced Video Codec Format profile : High@L4 Format settings : CABAC / 4 Ref Frames Format settings, CABAC : Yes Format settings, Reference frames : 4 frames Codec ID : V_MPEG4/ISO/AVC Duration : 43 min 20 s Bit rate : 2 239 kb/s Width : 1 920 pixels Height : 1 080 pixels Display aspect ratio : 16:9 Frame rate mode : Constant Frame rate : 29.970 (30000/1001) FPS Color space : YUV Chroma subsampling : 4:2:0 Bit depth : 8 bits Scan type : Progressive Bits/(Pixel*Frame) : 0.036 Stream size : 694 MiB (97%) Title : [NSBC] Writing library : Zencoder Video Encoding System Default : Yes Forced : No Audio ID : 2 Format : AAC LC Format/Info : Advanced Audio Codec Low Complexity Codec ID : A_AAC-2 Duration : 43 min 21 s Bit rate : 63.9 kb/s Channel(s) : 2 channels Channel layout : L R Sampling rate : 48.0 kHz Frame rate : 46.875 FPS (1024 SPF) Compression mode : Lossy Delay relative to video : -67 ms Stream size : 19.8 MiB (3%) Title : [NSBC] Language : Japanese Default : Yes Forced : No ```

File list

  • [NSBC] Watashi Danna o Shea Shiteta E02 [WEBDL] [1080p].mkv (714.7 MiB)