[NSBC] Sign E01 [WEBDL] [1080p]

Category:
Date:
2019-07-11 14:27 UTC
Submitter:
Seeders:
1
Information:
TlNCQy50bw==
Leechers:
0
File size:
1.2 GiB
Completed:
1391
Info hash:
5b81e4fc27af2e9767a5bbbd8883b7aa13ab1b94
> ### Download E01 V2 in [HERE](https://sharer.pw/file/Kpse8-RDTb8) ![POSTER](http://img.topddl.net/images/a92aba75ccb83881f3cf087f6f98124a.jpg "") ![Thumbnails](http://img.topddl.net/images/7bf67c0ccf9945cc8fa10157be7c45a1.jpg "") ``` General Unique ID : 15871274101834305642515295313501044208 (0xBF0B23A7AD04E199364D580130F3DF0) Complete name : [NSBC] Sign E01 [WEBDL] [1080p].mkv Format : Matroska Format version : Version 4 File size : 1.24 GiB Duration : 58 min 10 s Overall bit rate : 3 056 kb/s Movie name : [NSBC] Sign E01 [WEBDL] [1080p] Encoded by : NoNe | NSBC Encoded date : UTC 2019-07-11 14:20:00 Writing application : mkvmerge v35.0.0 ('All The Love In The World') 64-bit Writing library : libebml v1.3.9 + libmatroska v1.5.2 Copyright : NSBC Comment : NoNe | NSBC DATE_RECORDED : 2019 Video ID : 1 Format : AVC Format/Info : Advanced Video Codec Format profile : High@L4 Format settings : CABAC / 4 Ref Frames Format settings, CABAC : Yes Format settings, Reference frames : 4 frames Codec ID : V_MPEG4/ISO/AVC Duration : 58 min 10 s Bit rate : 2 990 kb/s Width : 1 920 pixels Height : 1 080 pixels Display aspect ratio : 16:9 Frame rate mode : Constant Frame rate : 29.970 (30000/1001) FPS Color space : YUV Chroma subsampling : 4:2:0 Bit depth : 8 bits Scan type : Progressive Bits/(Pixel*Frame) : 0.048 Stream size : 1.21 GiB (98%) Title : [NSBC] Writing library : Zencoder Video Encoding System Default : Yes Forced : No Color range : Limited Matrix coefficients : BT.709 Audio ID : 2 Format : AAC LC Format/Info : Advanced Audio Codec Low Complexity Codec ID : A_AAC-2 Duration : 58 min 10 s Bit rate : 63.9 kb/s Channel(s) : 2 channels Channel layout : L R Sampling rate : 48.0 kHz Frame rate : 46.875 FPS (1024 SPF) Compression mode : Lossy Delay relative to video : -67 ms Stream size : 26.6 MiB (2%) Title : [NSBC] Language : Japanese Default : Yes Forced : No ```

File list

  • [NSBC] Sign E01 [WEBDL] [1080p].mkv (1.2 GiB)