[NSBC] Keiji 7-nin Season 5 E01 [WEBDL] [1080p]

Category:
Date:
2019-07-10 21:59 UTC
Submitter:
Seeders:
1
Information:
TlNCQy50bw==
Leechers:
0
File size:
1.2 GiB
Completed:
898
Info hash:
5a1a1807ce83ea4a553c352ce89255d5494e3f57
![Poster](http://img.topddl.net/images/61af0e0dce728ebc52739711d1aa6e40.jpg "") ![Thumbnails](http://img.topddl.net/images/a14f1595a62afcf4812d3001a758f75c.jpg "") ``` General Unique ID : 4748361720851771213976927037056202954 (0x392804ECE8D84477FD0FE658C49B8CA) Complete name : [NSBC] Keiji 7-nin Season 5 E01 [WEBDL] [1080p].mkv Format : Matroska Format version : Version 4 File size : 1.23 GiB Duration : 57 min 30 s Overall bit rate : 3 063 kb/s Movie name : [NSBC] Keiji 7-nin Season 5 E01 [WEBDL] [1080p] Encoded by : NoNe | NSBC Encoded date : UTC 2019-07-10 21:55:53 Writing application : mkvmerge v35.0.0 ('All The Love In The World') 64-bit Writing library : libebml v1.3.9 + libmatroska v1.5.2 Copyright : NSBC Comment : NoNe | NSBC DATE_RECORDED : 2019 Video ID : 1 Format : AVC Format/Info : Advanced Video Codec Format profile : High@L4 Format settings : CABAC / 4 Ref Frames Format settings, CABAC : Yes Format settings, Reference frames : 4 frames Codec ID : V_MPEG4/ISO/AVC Duration : 57 min 29 s Bit rate : 2 996 kb/s Width : 1 920 pixels Height : 1 080 pixels Display aspect ratio : 16:9 Frame rate mode : Constant Frame rate : 29.970 (30000/1001) FPS Color space : YUV Chroma subsampling : 4:2:0 Bit depth : 8 bits Scan type : Progressive Bits/(Pixel*Frame) : 0.048 Stream size : 1.20 GiB (98%) Title : [NSBC] Writing library : Zencoder Video Encoding System Default : Yes Forced : No Color range : Limited Matrix coefficients : BT.709 Audio ID : 2 Format : AAC LC Format/Info : Advanced Audio Codec Low Complexity Codec ID : A_AAC-2 Duration : 57 min 30 s Bit rate : 63.9 kb/s Channel(s) : 2 channels Channel layout : L R Sampling rate : 48.0 kHz Frame rate : 46.875 FPS (1024 SPF) Compression mode : Lossy Delay relative to video : -67 ms Stream size : 26.3 MiB (2%) Title : [NSBC] Language : Japanese Default : Yes Forced : No ```

File list

  • [NSBC] Keiji 7-nin Season 5 E01 [WEBDL] [1080p].mkv (1.2 GiB)