[NSBC] Gisou Furin E01 [WEBDL] [1080p]

Category:
Date:
2019-07-10 21:51 UTC
Submitter:
Seeders:
3
Information:
TlNCQy50bw==
Leechers:
0
File size:
844.0 MiB
Completed:
1113
Info hash:
709b276ddc6e03ebe4c22a0d67a713e30e409c1e
![Poster](http://img.topddl.net/images/ceafd99903045afdcbd8fb92b240aaff.jpg "") ![Thumbnails](http://img.topddl.net/images/83d9b93c4a979bd299c9005a1b26ea66.jpg "") ``` General Unique ID : 140132850086199854090044761017517757341 (0x696C9AEF85F0646EDF8136049ED6539D) Complete name : [NSBC] Gisou Furin E01 [WEBDL] [1080p].mkv Format : Matroska Format version : Version 4 File size : 844 MiB Duration : 51 min 9 s Overall bit rate : 2 307 kb/s Movie name : [NSBC] Gisou Furin E01 [WEBDL] [1080p] Encoded by : NoNe | NSBC Encoded date : UTC 2019-07-10 21:47:34 Writing application : mkvmerge v35.0.0 ('All The Love In The World') 64-bit Writing library : libebml v1.3.9 + libmatroska v1.5.2 Copyright : NSBC Comment : NoNe | NSBC DATE_RECORDED : 2019 Video ID : 1 Format : AVC Format/Info : Advanced Video Codec Format profile : High@L4 Format settings : CABAC / 4 Ref Frames Format settings, CABAC : Yes Format settings, Reference frames : 4 frames Codec ID : V_MPEG4/ISO/AVC Duration : 51 min 8 s Bit rate : 2 240 kb/s Width : 1 920 pixels Height : 1 080 pixels Display aspect ratio : 16:9 Frame rate mode : Constant Frame rate : 29.970 (30000/1001) FPS Color space : YUV Chroma subsampling : 4:2:0 Bit depth : 8 bits Scan type : Progressive Bits/(Pixel*Frame) : 0.036 Stream size : 820 MiB (97%) Title : [NSBC] Writing library : Zencoder Video Encoding System Default : Yes Forced : No Audio ID : 2 Format : AAC LC Format/Info : Advanced Audio Codec Low Complexity Codec ID : A_AAC-2 Duration : 51 min 9 s Bit rate : 64.0 kb/s Channel(s) : 2 channels Channel layout : L R Sampling rate : 48.0 kHz Frame rate : 46.875 FPS (1024 SPF) Compression mode : Lossy Delay relative to video : -67 ms Stream size : 23.4 MiB (3%) Title : [NSBC] Language : Japanese Default : Yes Forced : No ```

File list

  • [NSBC] Gisou Furin E01 [WEBDL] [1080p].mkv (844.0 MiB)