[NSBC] Jikuu Tantei Oyu E01 [WEBDL] [1080p]

Category:
Date:
2019-07-09 22:41 UTC
Submitter:
Seeders:
4
Information:
TlNCQy50bw==
Leechers:
1
File size:
388.8 MiB
Completed:
769
Info hash:
97a29d94f0912a9e2c58dceec661faf43112ebf0
![Poster](http://img.topddl.net/images/cd44173fc2324137734ee43f18d9e820.jpg "") ![Thumbnails](http://img.topddl.net/images/961130ea5c810fefaae560aae1e69ff4.jpg "") ``` General Unique ID : 83839357633414972331295613217431605610 (0x3F12DF78E4BC8DB0B6A876BFABB7D16A) Complete name : [NSBC] Jikuu Tantei Oyu E01 [WEBDL] [1080p].mkv Format : Matroska Format version : Version 4 File size : 389 MiB Duration : 23 min 54 s Overall bit rate : 2 274 kb/s Movie name : [NSBC] Jikuu Tantei Oyu E01 [WEBDL] [1080p] Encoded by : NoNe | NSBC Encoded date : UTC 2019-07-09 22:36:55 Writing application : mkvmerge v35.0.0 ('All The Love In The World') 64-bit Writing library : libebml v1.3.9 + libmatroska v1.5.2 Copyright : NSBC Comment : NoNe | NSBC DATE_RECORDED : 2019 Video ID : 1 Format : AVC Format/Info : Advanced Video Codec Format profile : High@L4 Format settings : CABAC / 4 Ref Frames Format settings, CABAC : Yes Format settings, Reference frames : 4 frames Codec ID : V_MPEG4/ISO/AVC Duration : 23 min 54 s Bit rate : 2 144 kb/s Width : 1 920 pixels Height : 1 080 pixels Display aspect ratio : 16:9 Frame rate mode : Constant Frame rate : 29.970 (30000/1001) FPS Color space : YUV Chroma subsampling : 4:2:0 Bit depth : 8 bits Scan type : Progressive Bits/(Pixel*Frame) : 0.034 Stream size : 366 MiB (94%) Title : [NSBC] Writing library : Zencoder Video Encoding System Language : Japanese Default : Yes Forced : No Color range : Limited Color primaries : BT.709 Transfer characteristics : BT.709 Matrix coefficients : BT.709 Audio ID : 2 Format : AAC LC Format/Info : Advanced Audio Codec Low Complexity Codec ID : A_AAC-2 Duration : 23 min 54 s Bit rate : 128 kb/s Channel(s) : 2 channels Channel layout : L R Sampling rate : 48.0 kHz Frame rate : 46.875 FPS (1024 SPF) Compression mode : Lossy Delay relative to video : -67 ms Stream size : 21.8 MiB (6%) Title : [NSBC] Language : Japanese Default : Yes Forced : No ```

File list

  • [NSBC] Jikuu Tantei Oyu E01 [WEBDL] [1080p].mkv (388.8 MiB)