[NSBC] Ogamiya Kaidan II E01 [WEBDL] [720p]

Category:
Date:
2019-07-09 04:52 UTC
Submitter:
Seeders:
11
Information:
TlNCQy50bw==
Leechers:
3
File size:
515.3 MiB
Completed:
468
Info hash:
ee42d40288177c2664e6eac9ca0505e56ffcb686
![POSTER](http://img.topddl.net/images/8ae8c8557b80ab490dc1de7714ab623c.jpg "") ![Thumbnails](http://img.topddl.net/images/db2cd4bdf90e68abb01566347a1bf063.jpg "") ``` General Unique ID : 225126289890513152227870432968006379473 (0xA95DBF0D503126A1ACFE4252407B27D1) Complete name : [NSBC] Ogamiya Kaidan II E01 [WEBDL] [720p].mkv Format : Matroska Format version : Version 4 File size : 515 MiB Duration : 23 min 4 s Overall bit rate : 3 123 kb/s Movie name : [NSBC] Ogamiya Kaidan II E01 [WEBDL] [720p] Encoded by : NoNe | NSBC Encoded date : UTC 2019-07-09 04:39:55 Writing application : mkvmerge v35.0.0 ('All The Love In The World') 64-bit Writing library : libebml v1.3.9 + libmatroska v1.5.2 Copyright : NSBC Comment : NoNe | NSBC DATE_RECORDED : 2019 Video ID : 1 Format : AVC Format/Info : Advanced Video Codec Format profile : Main@L3.1 Format settings : CABAC / 3 Ref Frames Format settings, CABAC : Yes Format settings, Reference frames : 3 frames Format settings, GOP : M=1, N=30 Codec ID : V_MPEG4/ISO/AVC Duration : 23 min 4 s Bit rate : 2 993 kb/s Width : 1 280 pixels Height : 720 pixels Display aspect ratio : 16:9 Frame rate mode : Constant Frame rate : 29.970 (30000/1001) FPS Color space : YUV Chroma subsampling : 4:2:0 Bit depth : 8 bits Scan type : Progressive Bits/(Pixel*Frame) : 0.108 Stream size : 494 MiB (96%) Title : [NSBC] Writing library : Zencoder Video Encoding System Default : Yes Forced : No Audio ID : 2 Format : AAC LC Format/Info : Advanced Audio Codec Low Complexity Codec ID : A_AAC-2 Duration : 23 min 4 s Bit rate : 128 kb/s Channel(s) : 2 channels Channel layout : L R Sampling rate : 48.0 kHz Frame rate : 46.875 FPS (1024 SPF) Compression mode : Lossy Stream size : 21.1 MiB (4%) Title : [NSBC] Language : Japanese Default : Yes Forced : No ```

File list

  • [NSBC] Ogamiya Kaidan II E01 [WEBDL] [720p].mkv (515.3 MiB)