[NSBC] Kansatsui Asagao E01 [WEBDL] [720p]

Category:
Date:
2019-07-09 00:15 UTC
Submitter:
Seeders:
0
Information:
TlNCQy50bw==
Leechers:
0
File size:
1.0 GiB
Completed:
1296
Info hash:
d716c414843360ba0c5ad5d8f8753600d11fbb56
![POSTER](http://img.topddl.net/images/03d2e2b22c04b33dd556ba8888eb9f1b.jpg "") ![Thumbnails](http://img.topddl.net/images/c62ef00fa5098a446a6f6f5eb4f29a45.jpg "") ``` General Unique ID : 335336515278758170367156001042042173886 (0xFC4776AFF180E8455CF2D61F3C1FB9BE) Complete name : [NSBC] Kansatsui Asagao E01 [WEBDL] [720p].mkv Format : Matroska Format version : Version 4 File size : 1.04 GiB Duration : 1 h 10 min Overall bit rate mode : Variable Overall bit rate : 2 120 kb/s Movie name : [NSBC] Kansatsui Asagao E01 [WEBDL] [720p] Encoded by : NoNe | NSBC Encoded date : UTC 2019-07-08 23:57:52 Writing application : mkvmerge v35.0.0 ('All The Love In The World') 64-bit Writing library : libebml v1.3.9 + libmatroska v1.5.2 Copyright : NSBC Comment : NoNe | NSBC DATE_RECORDED : 2019 Video ID : 1 Format : AVC Format/Info : Advanced Video Codec Format profile : High@L4.1 Format settings : CABAC / 4 Ref Frames Format settings, CABAC : Yes Format settings, Reference frames : 4 frames Codec ID : V_MPEG4/ISO/AVC Duration : 1 h 10 min Bit rate mode : Variable Bit rate : 1 989 kb/s Maximum bit rate : 6 000 kb/s Width : 1 280 pixels Height : 720 pixels Display aspect ratio : 16:9 Frame rate mode : Constant Frame rate : 29.970 (30000/1001) FPS Color space : YUV Chroma subsampling : 4:2:0 Bit depth : 8 bits Scan type : Progressive Bits/(Pixel*Frame) : 0.072 Stream size : 1 000 MiB (94%) Title : [NSBC] Default : Yes Forced : No Color range : Limited Color primaries : BT.709 Transfer characteristics : BT.709 Matrix coefficients : BT.709 Audio ID : 2 Format : AAC LC Format/Info : Advanced Audio Codec Low Complexity Codec ID : A_AAC-2 Duration : 1 h 10 min Bit rate : 128 kb/s Channel(s) : 2 channels Channel layout : L R Sampling rate : 48.0 kHz Frame rate : 46.875 FPS (1024 SPF) Compression mode : Lossy Delay relative to video : -67 ms Stream size : 64.4 MiB (6%) Title : [NSBC] Language : Japanese Default : Yes Forced : No ```

File list

  • [NSBC] Kansatsui Asagao E01 [WEBDL] [720p].mkv (1.0 GiB)