[NSBC] No Side Game E01 [WEBDL] [1080p]

Category:
Date:
2019-07-07 23:08 UTC
Submitter:
Seeders:
3
Information:
TlNCQy50bw==
Leechers:
1
File size:
1.7 GiB
Completed:
1949
Info hash:
2744b4f3c09910618ac9b9f8987a73a14dd8ef76
![POSTER](http://img.topddl.net/images/9fd2f315e6d6b74aa5cdb4d35736d8d6.jpg "") ![Thumbnails](http://img.topddl.net/images/e24e5e38190acee684fa14182b1f245a.jpg "") ``` General Unique ID : 937761391437713533458042187117453914 (0xB49B34CD56070676B1CEB23B1B625A) Complete name : [NSBC] No Side Game E01 [WEBDL] [1080p].mkv Format : Matroska Format version : Version 4 File size : 1.72 GiB Duration : 1 h 9 min Overall bit rate : 3 548 kb/s Movie name : [NSBC] No Side Game E01 [WEBDL] [1080p] Encoded by : NoNe | NSBC Encoded date : UTC 2019-07-07 22:55:33 Writing application : mkvmerge v35.0.0 ('All The Love In The World') 64-bit Writing library : libebml v1.3.9 + libmatroska v1.5.2 Copyright : NSBC Comment : NoNe | NSBC DATE_RECORDED : 2019 Video ID : 1 Format : AVC Format/Info : Advanced Video Codec Format profile : High@L4 Format settings : CABAC / 4 Ref Frames Format settings, CABAC : Yes Format settings, Reference frames : 4 frames Codec ID : V_MPEG4/ISO/AVC Duration : 1 h 9 min Bit rate : 3 481 kb/s Width : 1 920 pixels Height : 1 080 pixels Display aspect ratio : 16:9 Frame rate mode : Constant Frame rate : 29.970 (30000/1001) FPS Color space : YUV Chroma subsampling : 4:2:0 Bit depth : 8 bits Scan type : Progressive Bits/(Pixel*Frame) : 0.056 Stream size : 1.68 GiB (98%) Title : [NSBC] Writing library : Zencoder Video Encoding System Default : Yes Forced : No Color range : Limited Color primaries : BT.709 Transfer characteristics : BT.709 Matrix coefficients : BT.709 Audio ID : 2 Format : AAC LC Format/Info : Advanced Audio Codec Low Complexity Codec ID : A_AAC-2 Duration : 1 h 9 min Bit rate : 64.0 kb/s Channel(s) : 2 channels Channel layout : L R Sampling rate : 48.0 kHz Frame rate : 46.875 FPS (1024 SPF) Compression mode : Lossy Delay relative to video : -67 ms Stream size : 31.7 MiB (2%) Title : [NSBC] Language : Japanese Default : Yes Forced : No ```

File list

  • [NSBC] No Side Game E01 [WEBDL] [1080p].mkv (1.7 GiB)