[NSBC] Anata no Ban Desu -CounterAttack- E12 [WEBDL] [1080p]

Category:
Date:
2019-07-07 23:08 UTC
Submitter:
Seeders:
6
Information:
TlNCQy50bw==
Leechers:
3
File size:
685.6 MiB
Completed:
2319
Info hash:
d45ad7f17278dc14d7112fb05eda0f9d8bdc85b2
![POSTER](http://img.topddl.net/images/c17a80350db4fa01c7aeadd50f0752a2.jpg "") ![Thumbnails](http://img.topddl.net/images/d155fd5e007539371b9072a1ee25cb55.jpg "") ``` General Unique ID : 329854979345911288589043037185338203222 (0xF827C21993593110F8C7C97D7C4B5C56) Complete name : [NSBC] Anata no Ban Desu -CounterAttack- E12 [WEBDL] [1080p].mkv Format : Matroska Format version : Version 4 File size : 686 MiB Duration : 46 min 16 s Overall bit rate : 2 072 kb/s Movie name : [NSBC] Anata no Ban Desu -CounterAttack- E12 [WEBDL] [1080p] Encoded by : NoNe | NSBC Encoded date : UTC 2019-07-07 22:55:14 Writing application : mkvmerge v35.0.0 ('All The Love In The World') 64-bit Writing library : libebml v1.3.9 + libmatroska v1.5.2 Copyright : NSBC Comment : NoNe | NSBC DATE_RECORDED : 2019 Video ID : 1 Format : AVC Format/Info : Advanced Video Codec Format profile : High@L4 Format settings : CABAC / 4 Ref Frames Format settings, CABAC : Yes Format settings, Reference frames : 4 frames Codec ID : V_MPEG4/ISO/AVC Duration : 46 min 15 s Bit rate : 2 005 kb/s Width : 1 920 pixels Height : 1 080 pixels Display aspect ratio : 16:9 Frame rate mode : Constant Frame rate : 29.970 (30000/1001) FPS Color space : YUV Chroma subsampling : 4:2:0 Bit depth : 8 bits Scan type : Progressive Bits/(Pixel*Frame) : 0.032 Stream size : 664 MiB (97%) Title : [NSBC] Writing library : Zencoder Video Encoding System Default : Yes Forced : No Audio ID : 2 Format : AAC LC Format/Info : Advanced Audio Codec Low Complexity Codec ID : A_AAC-2 Duration : 46 min 16 s Bit rate : 64.0 kb/s Channel(s) : 2 channels Channel layout : L R Sampling rate : 48.0 kHz Frame rate : 46.875 FPS (1024 SPF) Compression mode : Lossy Delay relative to video : -67 ms Stream size : 21.2 MiB (3%) Title : [NSBC] Language : Japanese Default : Yes Forced : No ```

File list

  • [NSBC] Anata no Ban Desu -CounterAttack- E12 [WEBDL] [1080p].mkv (685.6 MiB)
thanks, but I'm sorry to ask, do you have a copy of MOMIFUYU SP??

NOSoba (uploader)

User
yes but we decided not shared publicly