[NSBC] Kabukicho Bengonin Rinka E12 [WEBDL] [720p]

Category:
Date:
2019-07-06 23:30 UTC
Submitter:
Seeders:
2
Information:
TlNCQy50bw==
Leechers:
1
File size:
510.5 MiB
Completed:
489
Info hash:
6a49e47b78e3dbe4454b0a8a8fadacff7a4dc483
![POSTER](http://img.topddl.net/images/c3ce19b07569b32fa6768397d0202cb5.jpg "") ![Thumbnails](http://img.topddl.net/images/707b42b5791601f06b24fcede0206135.jpg "") ``` General Unique ID : 29897572404748968980758101672930207320 (0x167E10207F78BFB29CF78E149A726658) Complete name : [NSBC] Kabukicho Bengonin Rinka E12 [WEBDL] [720p].mkv Format : Matroska Format version : Version 4 File size : 511 MiB Duration : 22 min 49 s Overall bit rate : 3 128 kb/s Movie name : [NSBC] Kabukicho Bengonin Rinka E12 [WEBDL] [720p] Encoded by : NoNe | NSBC Encoded date : UTC 2019-07-06 23:27:29 Writing application : mkvmerge v35.0.0 ('All The Love In The World') 64-bit Writing library : libebml v1.3.9 + libmatroska v1.5.2 Copyright : NSBC Comment : NoNe | NSBC DATE_RECORDED : 2019 Video ID : 1 Format : AVC Format/Info : Advanced Video Codec Format profile : Main@L3.1 Format settings : CABAC / 3 Ref Frames Format settings, CABAC : Yes Format settings, Reference frames : 3 frames Format settings, GOP : M=1, N=30 Codec ID : V_MPEG4/ISO/AVC Duration : 22 min 49 s Bit rate : 2 998 kb/s Width : 1 280 pixels Height : 720 pixels Display aspect ratio : 16:9 Frame rate mode : Constant Frame rate : 29.970 (30000/1001) FPS Color space : YUV Chroma subsampling : 4:2:0 Bit depth : 8 bits Scan type : Progressive Bits/(Pixel*Frame) : 0.109 Stream size : 489 MiB (96%) Title : [NSBC] Writing library : Zencoder Video Encoding System Default : Yes Forced : No Audio ID : 2 Format : AAC LC Format/Info : Advanced Audio Codec Low Complexity Codec ID : A_AAC-2 Duration : 22 min 49 s Bit rate : 128 kb/s Channel(s) : 2 channels Channel layout : L R Sampling rate : 48.0 kHz Frame rate : 46.875 FPS (1024 SPF) Compression mode : Lossy Stream size : 20.9 MiB (4%) Title : [NSBC] Language : Japanese Default : Yes Forced : No ```

File list

  • [NSBC] Kabukicho Bengonin Rinka E12 [WEBDL] [720p].mkv (510.5 MiB)