[NSBC] Kamen Dosokai E06 [WEBDL] [720p]

Category:
Date:
2019-07-06 23:20 UTC
Submitter:
Seeders:
1
Information:
TlNCQy50bw==
Leechers:
2
File size:
665.6 MiB
Completed:
464
Info hash:
eaf669dfd6c085ce1685e3eaabb72c6a80bf0707
![Poster](http://img.topddl.net/images/6f08274ba5f45df1e941ef1236daf6a0.jpg "") ![Thumbnails](http://img.topddl.net/images/0db8232766e5c54b918f14f34e5a55f0.jpg "") ``` General Unique ID : 81875856570319325741390064615982595665 (0x3D98B76546E49353459E2626EFAB7E51) Complete name : [NSBC] Kamen Dosokai E06 [WEBDL] [720p].mkv Format : Matroska Format version : Version 4 File size : 666 MiB Duration : 44 min 12 s Overall bit rate mode : Variable Overall bit rate : 2 105 kb/s Movie name : [NSBC] Kamen Dosokai E06 [WEBDL] [720p] Encoded by : NoNe | NSBC Encoded date : UTC 2019-07-06 23:09:31 Writing application : mkvmerge v35.0.0 ('All The Love In The World') 64-bit Writing library : libebml v1.3.9 + libmatroska v1.5.2 Copyright : NSBC Comment : NoNe | NSBC DATE_RECORDED : 2019 Video ID : 1 Format : AVC Format/Info : Advanced Video Codec Format profile : High@L4.1 Format settings : CABAC / 4 Ref Frames Format settings, CABAC : Yes Format settings, Reference frames : 4 frames Codec ID : V_MPEG4/ISO/AVC Duration : 44 min 12 s Bit rate mode : Variable Bit rate : 1 975 kb/s Maximum bit rate : 6 000 kb/s Width : 1 280 pixels Height : 720 pixels Display aspect ratio : 16:9 Frame rate mode : Constant Frame rate : 29.970 (30000/1001) FPS Color space : YUV Chroma subsampling : 4:2:0 Bit depth : 8 bits Scan type : Progressive Bits/(Pixel*Frame) : 0.071 Stream size : 624 MiB (94%) Title : [NSBC] Default : Yes Forced : No Color range : Limited Color primaries : BT.709 Transfer characteristics : BT.709 Matrix coefficients : BT.709 Audio ID : 2 Format : AAC LC Format/Info : Advanced Audio Codec Low Complexity Codec ID : A_AAC-2 Duration : 44 min 12 s Bit rate : 128 kb/s Channel(s) : 2 channels Channel layout : L R Sampling rate : 48.0 kHz Frame rate : 46.875 FPS (1024 SPF) Compression mode : Lossy Delay relative to video : -67 ms Stream size : 40.5 MiB (6%) Title : [NSBC] Language : Japanese Default : Yes Forced : No ```

File list

  • [NSBC] Kamen Dosokai E06 [WEBDL] [720p].mkv (665.6 MiB)