One Punch Man S2 01-12 (1920x1080 HEVC2 AAC) (Batch)

Category:
Date:
2019-07-04 02:01 UTC
Submitter:
Seeders:
0
Information:
No information.
Leechers:
0
File size:
3.5 GiB
Completed:
6258
Info hash:
0b80b2428e644659c0321a1d0df8bf98fecad3b4
Source:HorribleSubs Video Codec:x265 12bit If you have any problems with playback or subtitle rendering, please make sure you’re using the latest version of the MPC-BE,MPC-HC,PotPlayer,VLC media player,KMPlayer,SMPlayer,MXPlayer Download URL http://www.videohelp.com/software/sections/video-players?orderby=Comments

File list

  • One Punch Man S2 01-12 (1920x1080 HEVC2 AAC) (Batch)
    • One Punch Man S2 - 01 (1920x1080 HEVC2 AAC).mkv (257.3 MiB)
    • One Punch Man S2 - 02 (1920x1080 HEVC2 AAC).mkv (270.0 MiB)
    • One Punch Man S2 - 03 (1920x1080 HEVC2 AAC).mkv (254.1 MiB)
    • One Punch Man S2 - 04 (1920x1080 HEVC2 AAC).mkv (285.2 MiB)
    • One Punch Man S2 - 05 (1920x1080 HEVC2 AAC).mkv (292.7 MiB)
    • One Punch Man S2 - 06 (1920x1080 HEVC2 AAC).mkv (284.7 MiB)
    • One Punch Man S2 - 07 (1920x1080 HEVC2 AAC).mkv (294.4 MiB)
    • One Punch Man S2 - 08 (1920x1080 HEVC2 AAC).mkv (309.7 MiB)
    • One Punch Man S2 - 09 (1920x1080 HEVC2 AAC).mkv (236.2 MiB)
    • One Punch Man S2 - 10 (1920x1080 HEVC2 AAC).mkv (278.8 MiB)
    • One Punch Man S2 - 11 (1920x1080 HEVC2 AAC).mkv (372.8 MiB)
    • One Punch Man S2 - 12 (1920x1080 HEVC2 AAC).mkv (420.8 MiB)
Thanks for putting all these batches up!
In what bitrate it was encoded? I wish HEVC x265 uploaders upload higher or original bitrates... Lowering bitrates makes quality worst

syk

User
I love your releases, man! Do you have a website/twitter where I can directly follow you?
@shnxxx, Here is the mediainfo from the first episode: https://pastebin.com/4cxA1NdU ``` General Unique ID : 163549089434654705903525471993493484699 (0x7B0A68ABD4F7961773950400DDF4749B) Complete name : One Punch Man S2 - 01 (1920x1080 HEVC2 AAC).mkv Format : Matroska Format version : Version 4 / Version 2 File size : 257 MiB Duration : 23 min 51 s Overall bit rate : 1 508 kb/s Encoded date : UTC 2019-04-21 11:28:13 Writing application : mkvmerge v33.0.0 ('A Little Bit of Madness') 64-bit Writing library : libebml v1.3.7 + libmatroska v1.5.0 Attachments : OpenSans-Semibold.ttf ```
Comments have a character limit. Mediainfo continued: ``` Video ID : 1 Format : HEVC Format/Info : High Efficiency Video Coding Format profile : @L4@Main Codec ID : V_MPEGH/ISO/HEVC Duration : 23 min 50 s Bit rate : 1 377 kb/s Width : 1 920 pixels Height : 1 080 pixels Display aspect ratio : 16:9 Frame rate mode : Constant Frame rate : 23.976 (24000/1001) FPS Original frame rate : 23.976 (23976/1000) FPS Color space : YUV Chroma subsampling : 4:2:0 Bit depth : 12 bits Bits/(Pixel*Frame) : 0.028 Stream size : 235 MiB (91%) Writing library : x265 3.0_Au+21-bac0e1acb874:[Windows][MSVC 1920][64 bit] 12bit Default : Yes Forced : No ```
``` Audio ID : 2 Format : AAC Format/Info : Advanced Audio Codec Format profile : LC Codec ID : A_AAC-2 Duration : 23 min 50 s Bit rate : 128 kb/s Channel(s) : 2 channels Channel positions : Front: L R Sampling rate : 44.1 kHz Frame rate : 43.066 FPS (1024 SPF) Compression mode : Lossy Stream size : 21.8 MiB (8%) Language : Japanese Default : Yes Forced : No Text ID : 3 Format : ASS Codec ID : S_TEXT/ASS Codec ID/Info : Advanced Sub Station Alpha Duration : 23 min 46 s Bit rate : 167 b/s Count of elements : 430 Compression mode : Lossless Stream size : 29.2 KiB (0%) Language : English Default : Yes Forced : No ```
Episode 12 has an audio cut out for just a couple seconds, at 8:36. My local media players seem to handle it ok, but Plex can't. Audio goes out of sync after that.