Dragon Ball Super Episodes 92-104 English Dubbed Uncut Funimation 1080P WEBRIP AAC2.0.H.264

Category:
Date:
2019-06-29 04:18 UTC
Submitter:
Seeders:
0
Information:
No information.
Leechers:
1
File size:
16.9 GiB
Completed:
25
Info hash:
2c2e87c878b153bcc1cb05154bf4c4688a8599b5
Format : Matroska Format version : Version 4 / Version 2 File size : 1.32 GiB Duration : 23 min 5 s Overall bit rate : 8 198 kb/s Encoded date : UTC 2019-06-29 02:52:30 Writing application : mkvmerge v34.0.0 ('Sight and Seen') 64-bit Writing library : libebml v1.3.7 + libmatroska v1.5.0 Video ID : 1 Format : AVC Format/Info : Advanced Video Codec Format profile : High@L4 Format settings, CABAC : Yes Format settings, ReFrames : 4 frames Codec ID : V_MPEG4/ISO/AVC Duration : 23 min 5 s Bit rate : 7 942 kb/s Width : 1 920 pixels Height : 1 080 pixels Display aspect ratio : 16:9 Frame rate mode : Constant Frame rate : 23.976 FPS Color space : YUV Chroma subsampling : 4:2:0 Bit depth : 8 bits Scan type : Progressive Bits/(Pixel*Frame) : 0.160 Stream size : 1.28 GiB (97%) Language : English Default : Yes Forced : No Audio ID : 2 Format : AAC Format/Info : Advanced Audio Codec Format profile : LC Codec ID : A_AAC Duration : 23 min 5 s Bit rate : 253 kb/s Channel(s) : 2 channels Channel positions : Front: L R Sampling rate : 48.0 kHz Frame rate : 46.875 FPS (1024 spf) Compression mode : Lossy Delay relative to video : -75 ms Stream size : 41.8 MiB (3%) Language : English Default : Yes Forced : No

File list

  • Dragon Ball Super Episodes 92-104
    • Episode 100 Rampage! A Crazed Warrior's Savagery Awakens!.mkv (1.3 GiB)
    • Episode 101 Warriors of Justice Close In! The Pride Troopers!.mkv (1.3 GiB)
    • Episode 102 The Power of Love Explodes The 2nd Universe's Witchy Warriors!.mkv (1.3 GiB)
    • Episode 103 Gohan, Get Ruthless! Showdown with the 10th Universe!.mkv (1.3 GiB)
    • Episode 104 A Transcendent Light-Speed Battle Erupts! Goku and Hit's United Front!.mkv (1.3 GiB)
    • Episode 92 A State of Emergency! Failure to Reach Ten Members!.mkv (1.3 GiB)
    • Episode 93 You're Our Tenth Warrior! Goku Approaches Frieza!!.mkv (1.3 GiB)
    • Episode 94 The Evil Emperor Returns! A Reception from Mysterious Assassins.mkv (1.3 GiB)
    • Episode 95 Most Heinous! Most Evil! Frieza's Rampage!.mkv (1.3 GiB)
    • Episode 96 The Time Has Come! To the Null Realm with the Universes on the Line!.mkv (1.3 GiB)
    • Episode 97 Survive! The Tournament of Power Begins at Last!!.mkv (1.3 GiB)
    • Episode 98 Ah, the Uncertainty! A Universe Despairs!.mkv (1.3 GiB)
    • Episode 99 Show Them! Krillin's Underlying Strength!.mkv (1.3 GiB)

dragontime1980 (uploader)

User
Fixed Torrent Note: Episode 104 had a glitch in it where it skipped a few seconds
Waiting for the next set. I wonder if they'll have ep109 and 110 merged or seperate.

dragontime1980 (uploader)

User
If they stick true to there website it will be merged
if that happens, we might get the removed footages.