[NSBC] Toritsu Mizusho! ~Reiwa~ E06 [WEBDL] [1080p]

Category:
Date:
2019-06-12 01:39 UTC
Submitter:
Seeders:
3
Information:
TlNCQy50bw==
Leechers:
0
File size:
414.4 MiB
Completed:
515
Info hash:
c5441f6e26397fbb9c22a8b321f49afd3671296b
![POSTER](http://img.topddl.net/images/3ae6abee7471189df189bb97cdb4f425.jpg "") ![Thumbnails](http://img.topddl.net/images/9dbf2365d6bab56981e10cb4f1c8c4e2.jpg "") ``` General Unique ID : 43354020596166590730832207607363107543 (0x209DAE3EEB5DA898C8DDB46ECE297AD7) Complete name : [NSBC] Toritsu Mizusho! ~Reiwa~ E06 [WEBDL] [1080p].mkv Format : Matroska Format version : Version 4 File size : 414 MiB Duration : 24 min 0 s Overall bit rate : 2 414 kb/s Movie name : [NSBC] Toritsu Mizusho! ~Reiwa~ E06 [WEBDL] [1080p] Encoded by : NoNe | NSBC Encoded date : UTC 2019-06-12 01:23:25 Writing application : mkvmerge v34.0.0 ('Sight and Seen') 64-bit Writing library : libebml v1.3.7 + libmatroska v1.5.0 Copyright : NSBC Comment : NoNe | NSBC DATE_RECORDED : 2019 Video ID : 1 Format : AVC Format/Info : Advanced Video Codec Format profile : High@L4 Format settings : CABAC / 4 Ref Frames Format settings, CABAC : Yes Format settings, RefFrames : 4 frames Codec ID : V_MPEG4/ISO/AVC Duration : 24 min 0 s Bit rate : 2 347 kb/s Width : 1 920 pixels Height : 1 080 pixels Display aspect ratio : 16:9 Frame rate mode : Constant Frame rate : 29.970 (30000/1001) FPS Color space : YUV Chroma subsampling : 4:2:0 Bit depth : 8 bits Scan type : Progressive Bits/(Pixel*Frame) : 0.038 Stream size : 403 MiB (97%) Title : [NSBC] Writing library : Zencoder Video Encoding System Default : No Forced : No Color range : Limited Color primaries : BT.709 Transfer characteristics : BT.709 Matrix coefficients : BT.709 Audio ID : 2 Format : AAC LC Format/Info : Advanced Audio Codec Low Complexity Codec ID : A_AAC-2 Duration : 24 min 0 s Bit rate : 64.0 kb/s Channel(s) : 2 channels Channel layout : L R Sampling rate : 48.0 kHz Frame rate : 46.875 FPS (1024 SPF) Compression mode : Lossy Delay relative to video : -67 ms Stream size : 11.0 MiB (3%) Title : [NSBC] Language : Japanese Default : Yes Forced : No ```

File list

  • [NSBC] Toritsu Mizusho! ~Reiwa~ E06 [WEBDL] [1080p].mkv (414.4 MiB)
Is there no episode 7 yet?

NOSoba (uploader)

User
my internet just back up so i will upload the latest episode ASAP please be patient