[NSBC] Kami Tunes E10 [WEBDL] [720p]

Category:
Date:
2019-06-10 11:09 UTC
Submitter:
Seeders:
2
Information:
TlNCQy50bw==
Leechers:
0
File size:
521.5 MiB
Completed:
265
Info hash:
743738aba948b03e6c04b6b48a362b62ba052647
> ### More Info [Click This](https://mydramalist.info/title/50613/kami_tunes%3A_narase%21_dtm_joshi) ![Poster](http://img.topddl.net/images/08eed762c6cb56fa793435ee23987cc7.png "") ![Thumbnails](http://img.topddl.net/images/19fd38e41b009fc0a5d67567ac192981.jpg "") ``` General Unique ID : 64972020474865535377408229308984423661 (0x30E127EE2C67212C8E116D72188F74ED) Complete name : [NSBC] Kami Tunes E10 [WEBDL] [720p].mkv Format : Matroska Format version : Version 4 File size : 521 MiB Duration : 23 min 19 s Overall bit rate : 3 127 kb/s Movie name : [NSBC] Kami Tunes E10 [WEBDL] [720p] Encoded by : NoNe | NSBC Encoded date : UTC 2019-06-10 11:05:38 Writing application : mkvmerge v34.0.0 ('Sight and Seen') 64-bit Writing library : libebml v1.3.7 + libmatroska v1.5.0 Copyright : NSBC Comment : NoNe | NSBC DATE_RECORDED : 2019 Video ID : 1 Format : AVC Format/Info : Advanced Video Codec Format profile : Main@L3.1 Format settings : CABAC / 3 Ref Frames Format settings, CABAC : Yes Format settings, RefFrames : 3 frames Format settings, GOP : M=1, N=30 Codec ID : V_MPEG4/ISO/AVC Duration : 23 min 18 s Bit rate : 2 996 kb/s Width : 1 280 pixels Height : 720 pixels Display aspect ratio : 16:9 Frame rate mode : Constant Frame rate : 29.970 (30000/1001) FPS Color space : YUV Chroma subsampling : 4:2:0 Bit depth : 8 bits Scan type : Progressive Bits/(Pixel*Frame) : 0.108 Stream size : 500 MiB (96%) Title : [NSBC] Writing library : Zencoder Video Encoding System Default : Yes Forced : No Color range : Limited Color primaries : BT.709 Transfer characteristics : BT.709 Matrix coefficients : BT.709 Audio ID : 2 Format : AAC LC Format/Info : Advanced Audio Codec Low Complexity Codec ID : A_AAC-2 Duration : 23 min 19 s Bit rate : 128 kb/s Channel(s) : 2 channels Channel layout : L R Sampling rate : 48.0 kHz Frame rate : 46.875 FPS (1024 SPF) Compression mode : Lossy Stream size : 21.3 MiB (4%) Title : [NSBC] Language : Japanese Default : Yes Forced : No ```

File list

  • [NSBC] Kami Tunes E10 [WEBDL] [720p].mkv (521.5 MiB)
Thanks so much ❤